<?xml version="1.0" standalone="no"?>
<!DOCTYPE svg PUBLIC "-//W3C//DTD SVG 1.1//EN" "http://www.w3.org/Graphics/SVG/1.1/DTD/svg11.dtd" >
<svg xmlns="http://www.w3.org/2000/svg">
<metadata>Generated by IcoMoon</metadata>
<defs>
<font id="icomoon" horiz-adv-x="1024">
<font-face units-per-em="1024" ascent="960" descent="-64" />
<missing-glyph horiz-adv-x="1024" />
<glyph unicode="&#x20;" horiz-adv-x="512" d="" />
<glyph unicode="&#xe900;" glyph-name="check" d="M851.883 619.947l-388.523-389.461c-9.163-9.192-21.837-14.88-35.84-14.88s-26.677 5.688-35.839 14.878l-219.564 220.247c-9.93 9.292-16.117 22.476-16.117 37.106 0 28.041 22.732 50.773 50.773 50.773 14.587 0 27.738-6.152 36.999-16.003l0.025-0.026 183.723-184.32 352.683 353.621c9.048 8.467 21.245 13.667 34.656 13.667 28.041 0 50.773-22.732 50.773-50.773 0-13.454-5.233-25.686-13.774-34.771l0.025 0.026z" />
<glyph unicode="&#xe901;" glyph-name="check-circle" d="M512 960c-284.444 0-512-227.556-512-512s227.556-512 512-512c284.444 0 512 227.556 512 512s-227.556 512-512 512zM512-7.111c-250.311 0-455.111 204.8-455.111 455.111s204.8 455.111 455.111 455.111 455.111-204.8 455.111-455.111-204.8-455.111-455.111-455.111zM711.111 635.733l-261.689-267.378-136.533 136.533c0 0 0 0 0 0-17.067 17.067-39.822 17.067-56.889 0s-17.067-39.822 0-51.2l164.978-164.978c0 0 0 0 0 0 17.067-17.067 39.822-17.067 51.2 0l290.133 290.133c17.067 17.067 17.067 39.822 0 51.2-11.378 17.067-34.133 17.067-51.2 5.689z" />
<glyph unicode="&#xe902;" glyph-name="check-circle-fill" d="M512-64c-282.77 0-512 229.23-512 512s229.23 512 512 512c282.77 0 512-229.23 512-512v0c0-282.77-229.23-512-512-512v0zM448 354.88l-170.688 162.944-85.312-81.472 256-244.352 384 366.528-85.312 81.472z" />
<glyph unicode="&#xe903;" glyph-name="chevron-down" d="M946.79 673.997c-12.006 11.995-28.586 19.414-46.899 19.414s-34.893-7.419-46.9-19.414l-335.667-335.667-346.317 346.317c-11.85 11.18-27.87 18.052-45.495 18.052-36.647 0-66.355-29.708-66.355-66.355 0-17.625 6.872-33.646 18.082-45.528l-0.030 0.033 382.566-382.669c1.74-1.735 3.576-3.377 5.499-4.915l0.133-0.103c12.262-15.315 30.957-25.040 51.923-25.040 18.31 0 34.888 7.416 46.893 19.408l382.565 382.565c11.995 12.006 19.414 28.586 19.414 46.899s-7.419 34.893-19.414 46.9l0.001-0.001z" />
<glyph unicode="&#xe904;" glyph-name="chevron-left" d="M737.856 12.928c12.015 12.001 19.448 28.589 19.448 46.912s-7.433 34.911-19.447 46.911l-335.617 335.937 346.496 346.304c12.778 12.122 20.729 29.225 20.729 48.185 0 36.654-29.714 66.368-66.368 66.368-18.96 0-36.063-7.95-48.157-20.699l-0.028-0.029-382.784-382.592c-1.752-1.743-3.406-3.579-4.955-5.503l-0.101-0.129c-15.333-12.264-25.069-30.971-25.069-51.953 0-18.326 7.428-34.917 19.437-46.927l382.592-382.784c12.001-12.015 28.589-19.448 46.912-19.448s34.911 7.433 46.911 19.447l0.001 0.001z" />
<glyph unicode="&#xe905;" glyph-name="close" d="M605.412 448l277.675 277.675c7.972 7.96 12.903 18.963 12.903 31.118s-4.931 23.158-12.903 31.118l-31.119 31.119c-7.96 7.972-18.963 12.903-31.118 12.903s-23.158-4.931-31.118-12.903l-277.676-277.676-277.732 277.732c-7.96 7.972-18.963 12.903-31.118 12.903s-23.158-4.931-31.118-12.903l-31.176-31.176c-7.972-7.96-12.903-18.963-12.903-31.118s4.931-23.158 12.903-31.118l277.676-277.676-277.675-277.675c-8.046-7.99-13.027-19.058-13.027-31.289s4.981-23.299 13.025-31.286l31.121-31.121c7.96-7.972 18.963-12.903 31.118-12.903s23.158 4.931 31.118 12.903l277.676 277.676 277.675-277.675c7.96-7.972 18.963-12.903 31.118-12.903s23.158 4.931 31.118 12.903l31.119 31.119c8.046 7.99 13.027 19.058 13.027 31.289s-4.981 23.299-13.025 31.286l-0.003 0.003z" />
<glyph unicode="&#xe906;" glyph-name="cs" d="M838.656 611.072c41.614 0 75.349-33.735 75.349-75.349v0-150.656c0-41.614-33.735-75.349-75.349-75.349v0h-40.021c-19.369-149.433-145.838-263.68-298.99-263.68-0.006 0-0.013 0-0.019 0h0.001v75.349c124.89 0 226.133 101.243 226.133 226.133v0 226.133c0.082 2.268 0.128 4.932 0.128 7.607 0 124.89-101.243 226.133-226.133 226.133s-226.133-101.243-226.133-226.133c0-2.675 0.046-5.34 0.139-7.993l-0.011 0.385v-263.68h-113.109c-41.614 0-75.349 33.735-75.349 75.349v0 150.4c0 41.614 33.735 75.349 75.349 75.349v0h40.021c19.305 149.498 145.806 263.82 299.008 263.82s279.703-114.321 298.848-262.31l0.16-1.51zM339.968 317.824l39.936 64c34.001-21.545 75.4-34.333 119.787-34.333s85.786 12.788 120.715 34.881l-0.929-0.549 39.936-64c-45.333-28.714-100.527-45.758-159.701-45.758s-114.368 17.044-160.94 46.49l1.239-0.732z" />
<glyph unicode="&#xe907;" glyph-name="envelope" d="M826.010 142.592h-617.421c-2.509-0.208-5.43-0.327-8.379-0.327-57.48 0-104.425 45.104-107.373 101.85l-0.011 0.263v407.194c2.932 57.031 49.889 102.164 107.386 102.164 2.948 0 5.869-0.119 8.757-0.351l-0.38 0.025h617.421c2.509 0.208 5.43 0.327 8.379 0.327 57.48 0 104.425-45.104 107.373-101.85l0.011-0.263v-407.194c-2.932-57.031-49.889-102.164-107.386-102.164-2.948 0-5.869 0.119-8.757 0.351l0.38-0.025zM208.589 685.312c-1.245 0.16-2.686 0.251-4.148 0.251-18.939 0-34.309-15.279-34.457-34.182v-407.208c0.148-18.918 15.518-34.196 34.457-34.196 1.462 0 2.903 0.091 4.317 0.268l-0.169-0.017h617.421c1.245-0.16 2.686-0.251 4.148-0.251 18.939 0 34.309 15.279 34.457 34.182v407.208c-0.148 18.918-15.518 34.196-34.457 34.196-1.462 0-2.903-0.091-4.317-0.268l0.169 0.017zM517.274 380.16c-8.577 0.745-16.439 3.179-23.462 6.967l0.32-0.158-385.997 237.517c-8.854 6.004-14.595 16.020-14.595 27.376 0 7.616 2.582 14.63 6.919 20.212l-0.056-0.075c8.078 7.984 19.188 12.916 31.45 12.916 8.316 0 16.102-2.268 22.773-6.22l-0.207 0.114 362.854-223.949 362.854 223.949c6.464 3.838 14.25 6.106 22.566 6.106 12.262 0 23.372-4.932 31.455-12.92l-0.004 0.004c4.281-5.508 6.864-12.521 6.864-20.137 0-11.356-5.741-21.372-14.479-27.302l-0.115-0.074-385.997-237.517c-6.704-3.631-14.565-6.064-22.916-6.794l-0.227-0.016z" />
<glyph unicode="&#xe908;" glyph-name="error" d="M512 960c-282.77 0-512-229.23-512-512s229.23-512 512-512c282.77 0 512 229.23 512 512v0c-0.853 282.427-229.574 511.148-511.919 512h-0.081zM765.856 411.744c-2.319-15.764-15.752-27.728-31.978-27.728-0.008 0-0.015 0-0.023 0h-443.727c-0.455-0.024-0.988-0.038-1.524-0.038-15.904 0-28.974 12.129-30.466 27.642l-0.010 0.124c-1.019 10.866-1.601 23.497-1.601 36.264s0.581 25.398 1.719 37.868l-0.118-1.604c2.319 15.764 15.752 27.728 31.978 27.728 0.008 0 0.015 0 0.023 0h443.727c0.006 0 0.014 0 0.022 0 16.227 0 29.659-11.964 31.957-27.552l0.021-0.176c1.019-10.866 1.601-23.497 1.601-36.264s-0.581-25.398-1.719-37.868l0.118 1.604z" />
<glyph unicode="&#xe909;" glyph-name="eye" d="M508.314 353.536c-52.708 0-95.437 42.729-95.437 95.437s42.729 95.437 95.437 95.437c52.708 0 95.437-42.729 95.437-95.437v0c-0.145-52.65-42.787-95.292-95.423-95.437h-0.014zM508.314 598.938c-82.823 0-149.965-67.142-149.965-149.965s67.142-149.965 149.965-149.965c82.823 0 149.965 67.142 149.965 149.965v0c0 0.106 0 0.232 0 0.358 0 82.823-67.142 149.965-149.965 149.965 0 0 0 0-0.001 0v0zM511.744 232.192c-137.677 0-237.926 69.53-308.787 216.781 70.912 146.586 171.11 216.781 308.787 216.781s237.926-70.195 308.787-216.781c-71.117-146.381-171.315-216.576-308.992-216.576zM878.49 470.784c-81.101 170.445-203.162 256.307-366.746 256.307s-285.645-85.914-366.746-255.642c-3.223-6.359-5.11-13.865-5.11-21.811s1.888-15.452 5.239-22.092l-0.129 0.281q121.702-255.642 366.746-255.642c163.84 0 285.645 85.914 366.746 255.642 2.875 6.279 4.551 13.621 4.551 21.354 0 7.908-1.753 15.407-4.891 22.129l0.135-0.322z" />
<glyph unicode="&#xe90a;" glyph-name="eye-close" d="M885.811 752.026c9.288-6.922 15.239-17.875 15.239-30.219 0-6.893-1.856-13.353-5.095-18.907l0.096 0.179-3.174-4.71-687.206-573.901c-7.409-9.155-18.644-14.96-31.236-14.96-9.028 0-17.359 2.984-24.061 8.020l0.103-0.074c-9.28 6.933-15.223 17.889-15.223 30.233 0 6.887 1.85 13.341 5.080 18.894l-0.096-0.18 3.226 4.71 687.206 573.901c7.409 9.155 18.644 14.96 31.236 14.96 9.028 0 17.359-2.984 24.061-8.020l-0.103 0.074zM794.726 562.586c33.14-39.085 61.045-84.056 81.755-132.821l1.291-3.422c-66.099-155.238-190.976-272.23-382.003-272.23-1.11-0.011-2.422-0.018-3.736-0.018-54.448 0-106.345 10.92-153.621 30.689l2.631-0.976 61.030 50.944c27.498-7.967 59.085-12.55 91.742-12.55 0.687 0 1.374 0.002 2.060 0.006h-0.106c0.443-0.002 0.968-0.003 1.493-0.003 136.655 0 253.846 83.34 303.518 201.968l0.806 2.17c-17.077 35.136-36.98 65.419-60.216 92.784l0.516-0.624 52.736 44.083zM495.77 698.624c1.292 0.015 2.819 0.024 4.347 0.024 60.44 0 117.704-13.601 168.897-37.909l-2.39 1.021-59.238-49.459c-32.482 11.558-69.948 18.238-108.975 18.238-0.929 0-1.857-0.004-2.784-0.011l0.142 0.001c-0.461 0.002-1.007 0.004-1.554 0.004-136.695 0-253.913-83.388-303.561-202.070l-0.805-2.171c19.26-39.834 42.744-74.088 70.566-104.283l-0.269 0.295-52.787-44.032c-38.194 42.044-69.729 91.018-92.384 144.657l-1.261 3.362c66.048 155.238 190.976 272.282 381.952 272.282zM634.624 428.851v-2.611c-0.691-75.341-61.926-136.149-137.364-136.149-0.542 0-1.083 0.003-1.624 0.009l0.082-0.001c-8.702 0.002-17.224 0.765-25.505 2.228l0.878-0.128zM495.821 562.483c0.064 0 0.139 0 0.214 0 15.568 0 30.55-2.51 44.563-7.148l-1.001 0.287-180.941-150.989c-1.076 6.402-1.69 13.778-1.69 21.298 0 0.163 0 0.325 0.001 0.487v-0.025c0.662 75.334 61.886 136.149 137.313 136.149 0.542 0 1.083-0.003 1.623-0.009l-0.082 0.001z" />
<glyph unicode="&#xe90b;" glyph-name="lock" d="M819.405 525.926h-38.758v96.563c-0.408 138.645-112.895 250.88-251.596 250.88-0.126 0-0.253 0-0.379 0h-12.524c-0.107 0-0.233 0-0.359 0-138.701 0-251.188-112.236-251.596-250.841v-96.602h-38.707c-0.076 0-0.166 0-0.256 0-67.865 0-122.88-55.015-122.88-122.88 0 0 0 0 0 0v0-270.336c0 0 0 0 0 0 0-67.865 55.015-122.88 122.88-122.88 0.090 0 0.18 0 0.27 0h593.906c67.865 0 122.88 55.015 122.88 122.88v0 271.36c-0.58 67.423-55.371 121.856-122.876 121.856-0.002 0-0.003 0-0.005 0v0zM329.165 622.49c0.666 102.865 84.065 186.029 186.955 186.317h12.572c102.918-0.288 186.316-83.452 186.982-186.253v-96.627h-387.635v96.563zM877.568 134.042c-0.174-32.011-26.136-57.901-58.158-57.958h-592.902c-32.028 0.058-57.989 25.947-58.163 57.942v270.353c0.174 32.011 26.136 57.901 58.158 57.958h593.926c32.028-0.058 57.989-25.947 58.163-57.942v-270.353zM466.125 265.574c0-31.529 25.559-57.088 57.088-57.088s57.088 25.559 57.088 57.088c0 31.529-25.559 57.088-57.088 57.088v0c-0.015 0-0.033 0-0.051 0-31.529 0-57.088-25.559-57.088-57.088v0z" />
<glyph unicode="&#xe90c;" glyph-name="mobile" d="M289.331 869.939c20.487 23.766 50.595 38.751 84.205 38.861h284.896c33.65-0.006 63.792-15.020 84.099-38.711l0.125-0.15c21.452-24.726 34.525-57.226 34.525-92.78 0-0.754-0.006-1.507-0.018-2.259l0.001 0.113v-641.792c0.014-0.744 0.022-1.622 0.022-2.501 0-35.44-13.079-67.825-34.675-92.592l0.144 0.168c-20.487-23.766-50.595-38.751-84.205-38.861h-284.691c-33.65 0.006-63.792 15.020-84.099 38.711l-0.125 0.15c-21.452 24.726-34.525 57.226-34.525 92.78 0 0.754 0.006 1.507 0.018 2.259l-0.001-0.113v641.792c-0.010 0.638-0.016 1.391-0.016 2.145 0 35.553 13.073 68.053 34.674 92.955l-0.149-0.176zM302.438 133.222c-0.025-0.744-0.040-1.618-0.040-2.496 0-40.654 31.132-74.038 70.856-77.61l0.3-0.022h284.877c40.025 3.594 71.157 36.977 71.157 77.632 0 0.878-0.015 1.752-0.043 2.623l0.003-0.127v107.059h-427.11v-107.059zM302.438 293.53h427.315v481.28c0.025 0.744 0.040 1.618 0.040 2.496 0 40.654-31.132 74.038-70.856 77.61l-0.3 0.022h-284.877c-40.033-3.616-71.164-37.012-71.164-77.679 0-0.951 0.017-1.898 0.051-2.841l-0.004 0.137v-481.28zM539.75 118.118h-47.411c-13.092 0-23.706 10.613-23.706 23.706s10.613 23.706 23.706 23.706h47.411c13.092 0 23.706-10.613 23.706-23.706s-10.613-23.706-23.706-23.706v0zM397.261 742.656h237.466c13.092 0 23.706 10.613 23.706 23.706s-10.613 23.706-23.706 23.706h-237.466c-13.092 0-23.706-10.613-23.706-23.706s10.613-23.706 23.706-23.706v0zM397.363 790.118h237.67c13.092 0 23.706-10.613 23.706-23.706s-10.613-23.706-23.706-23.706h-237.67c-0.411-0.027-0.89-0.042-1.373-0.042-12.357 0-22.374 10.017-22.374 22.374 0 0.483 0.015 0.963 0.045 1.438l-0.003-0.065c-0.039 0.493-0.062 1.069-0.062 1.649 0 12.216 9.903 22.118 22.118 22.118 0.58 0 1.155-0.022 1.724-0.066l-0.075 0.005z" />
<glyph unicode="&#xe90d;" glyph-name="otp" d="M178.631 675.556c-31.419 0-56.889-25.47-56.889-56.889v0-341.333c0-31.419 25.47-56.889 56.889-56.889v0h682.667c31.419 0 56.889 25.47 56.889 56.889v0 341.333c0 31.419-25.47 56.889-56.889 56.889v0h-682.667zM178.631 738.133h682.667c65.98 0 119.467-53.487 119.467-119.467v0-341.333c0-65.98-53.487-119.467-119.467-119.467v0h-682.667c-65.98 0-119.467 53.487-119.467 119.467v0 341.333c0 65.98 53.487 119.467 119.467 119.467v0zM266.866 526.962v-47.673l50.347 16.1 9.159-23.609-50.29-15.189 31.175-40.391-22.756-15.189-30.094 41.984-30.549-41.984-23.552 15.189 31.63 40.391-50.745 15.189 9.216 23.78 49.835-16.725v48.128zM450.788 526.962v-47.673l50.347 16.1 9.159-23.609-50.29-15.189 31.175-40.391-22.756-15.189-30.094 41.984-30.549-41.984-23.552 15.189 31.63 40.391-50.745 15.189 9.216 23.78 49.835-16.725v48.128zM634.709 526.962v-47.673l50.347 16.1 9.159-23.609-50.29-15.189 31.175-40.391-22.756-15.189-30.094 41.984-30.777-41.813-23.552 15.189 31.63 40.391-50.745 15.189 9.216 23.78 49.835-16.725v48.128zM234.439 532.651h38.116v-45.511l48.014 15.36 13.369-34.133-48.299-14.564 29.81-38.684-32.484-21.618-28.444 39.822-29.127-39.822-33.28 21.504 30.322 38.741-48.697 14.564 13.426 34.588 47.445-15.929zM261.177 521.273h-15.36v-50.347l-52.167 17.522-5.063-12.971 52.85-15.815-32.939-42.041 13.767-8.932 32.028 43.975 31.516-43.918 13.198 8.761-32.484 42.098 52.338 15.815-5.006 12.914-52.679-17.067zM418.304 532.651h38.116v-45.511l48.014 15.36 13.369-34.133-48.299-14.564 29.81-38.684-32.484-21.618-28.444 39.822-29.127-39.822-33.28 21.504 30.322 38.741-48.697 14.564 13.426 34.588 47.445-15.929zM445.042 521.273h-15.36v-50.347l-52.167 17.522-5.063-12.971 52.85-15.815-32.939-42.041 13.767-8.932 32.028 43.975 31.516-43.918 13.198 8.761-32.484 42.098 52.338 15.815-5.006 12.914-52.679-17.067zM602.169 532.651h38.116v-45.511l48.014 15.36 13.369-34.133-48.299-14.564 29.81-38.684-32.484-21.618-28.444 39.822-29.127-39.822-33.28 21.504 30.322 38.741-48.697 14.564 13.426 34.588 47.445-15.929zM628.907 521.273h-15.36v-50.347l-52.167 17.522-5.063-12.971 52.85-15.815-32.939-42.041 13.767-8.932 32.028 43.975 31.516-43.918 13.198 8.761-32.484 42.098 52.338 15.815-5.006 12.914-52.679-17.067zM727.154 420.75h95.403v-39.822h-95.403z" />
<glyph unicode="&#xe90e;" glyph-name="username" d="M512 908.8c254.434-0.078 460.663-206.355 460.663-460.8 0-138.601-61.192-262.91-158.035-347.384l-0.548-0.468-9.114-7.68c-79.005-65.515-181.432-105.267-293.143-105.267-254.493 0-460.8 206.307-460.8 460.8s206.307 460.8 460.8 460.8c0.008 0 0.016 0 0.025 0h-0.001zM512 240.64c-0.041 0-0.089 0-0.137 0-90.456 0-169.838-47.418-214.643-118.753l-0.618-1.055c57.19-38.249 127.007-61.922 202.197-64.292l0.606-0.015h12.646c0.202 0 0.441-0.001 0.68-0.001 79.958 0 154.29 24.088 216.135 65.403l-1.417-0.891c-45.445 72.274-124.763 119.603-215.135 119.603-0.111 0-0.222 0-0.332 0h0.017zM512 839.68c-0.061 0-0.134 0-0.206 0-216.319 0-391.68-175.361-391.68-391.68 0-111.788 46.831-212.638 121.945-284.001l0.168-0.159c58.497 88.323 157.439 145.773 269.798 145.773s211.302-57.45 269.054-144.577l0.745-1.195c75.282 71.522 122.113 172.372 122.113 284.16 0 216.319-175.361 391.68-391.68 391.68-0.072 0-0.145 0-0.217 0h0.011zM512 724.48c101.797 0 184.32-82.523 184.32-184.32s-82.523-184.32-184.32-184.32c-101.797 0-184.32 82.523-184.32 184.32v0c0 101.797 82.523 184.32 184.32 184.32v0zM512 655.36c-63.623 0-115.2-51.577-115.2-115.2s51.577-115.2 115.2-115.2c63.623 0 115.2 51.577 115.2 115.2v0c0 63.623-51.577 115.2-115.2 115.2v0z" />
<glyph unicode="&#xe90f;" glyph-name="warning" d="M512-64q217.008 6 361.504 150.496t150.496 361.504q-6 217.008-150.496 361.504t-361.504 150.496q-217.008-6-361.504-150.496t-150.496-361.504q6-217.008 150.496-361.504t361.504-150.496zM562.992 137.008c-13.949-14.215-33.362-23.026-54.832-23.026-0.585 0-1.168 0.007-1.75 0.020l0.087-0.002c-0.788-0.031-1.713-0.048-2.642-0.048-20.355 0-38.738 8.447-51.833 22.027l-0.021 0.022c-13.014 13.5-21.032 31.895-21.032 52.162 0 0.663 0.009 1.325 0.026 1.984l-0.002-0.097c0 0.057 0 0.125 0 0.192 0 42.415 34.385 76.8 76.8 76.8 0.068 0 0.135 0 0.203 0h-0.010c22.502-1.067 42.536-10.826 56.976-25.967l0.032-0.033c12.935-12.205 20.988-29.463 20.988-48.602 0-0.683-0.010-1.363-0.031-2.041l0.002 0.099c0-0.054 0-0.118 0-0.182 0-20.98-8.807-39.904-22.927-53.275l-0.034-0.032zM446 746c16.015 11.893 36.174 19.038 58.001 19.038 1.057 0 2.111-0.017 3.16-0.050l-0.153 0.004c8.898-0.535 17.128-1.606 25.17-3.202l-1.17 0.194c18.51-0.145 35.643-5.922 49.802-15.698l-0.298 0.194c11.843-9.777 19.589-24.15 20.49-40.35l0.006-0.146c1.225-5.093 1.952-10.953 2-16.975v-0.033q0-14-2.992-42-6.992-46-26.992-147.008l-38.032-170.96h-50c-9.752 30.209-18.457 66.988-24.423 104.677l-0.569 4.363-29.008 148.96c-5.041 31.313-8.628 68.57-9.956 106.403l-0.044 1.597c-0.037 0.783-0.058 1.701-0.058 2.623 0 19.904 9.823 37.514 24.885 48.246l0.181 0.123z" />
<glyph unicode="&#xe910;" glyph-name="ball" d="M514.299 960c-0.683 0.003-1.491 0.005-2.299 0.005-282.77 0-512-229.23-512-512 0-0.002 0-0.004 0-0.006v0c0.435-282.864 229.842-512.002 512.766-512.002 0.539 0 1.078 0.001 1.617 0.002h-0.084c281.779 1.306 509.701 230.033 509.701 511.995 0 0.002 0 0.004 0 0.006v0c0 0.001 0 0.003 0 0.005 0 281.961-227.921 510.689-509.576 511.994h-0.125zM261.365 86.994s0 0 0 4.599c0.11 1.604 0.172 3.478 0.172 5.365s-0.063 3.761-0.186 5.617l0.013-0.252c-4.564 18.684-20.916 32.423-40.565 32.957l-0.058 0.001h-9.964l-4.599 4.599c-9.198 9.198-17.629 18.395-26.060 28.359h19.162c18.507 4.721 31.973 21.241 31.973 40.907 0 3.711-0.48 7.311-1.38 10.739l0.066-0.294c-2.175 6.459-3.799 14.003-4.565 21.798l-0.034 0.43c0 7.665 0 15.329 0 22.994 0 23.282-18.874 42.156-42.156 42.156v0c-23.282 0-42.156-18.874-42.156-42.156v0c-0.364-5.044-0.571-10.929-0.571-16.862s0.207-11.818 0.615-17.647l-0.044 0.785c-0.177-1.952-0.277-4.222-0.277-6.515s0.101-4.563 0.298-6.805l-0.021 0.29c-41.072 65.719-65.428 145.547-65.428 231.062 0 121.682 49.313 231.845 129.045 311.597v0c0 3.832 8.431 7.665 12.263 12.263l-16.862-38.323c-2.584-5.191-4.095-11.307-4.095-17.775 0-16.717 10.098-31.076 24.527-37.309l0.263-0.101c4.952-2.244 10.72-3.636 16.791-3.831l0.072-0.002c0.156-0.002 0.339-0.003 0.523-0.003 16.754 0 31.182 9.954 37.694 24.271l0.106 0.259 21.461 47.521c1.981 4.763 3.132 10.295 3.132 16.096s-1.151 11.333-3.237 16.381l0.104-0.285c-3.537 10.715-11.275 19.203-21.214 23.661l-0.247 0.099c-5.184 2.343-11.232 3.745-17.597 3.832h-0.032c11.613 8.458 24.893 16.84 38.718 24.347l1.905 0.946c3.842-5.404 9.037-9.614 15.098-12.177l0.231-0.087c4.942-2.346 10.728-3.75 16.834-3.832h0.029c9.167 0.092 17.65 2.944 24.678 7.763l-0.151-0.098c-53.258-89.543-91.304-194.54-107.527-306.602l-0.545-4.584c-8.014-46.937-12.594-101.002-12.594-156.137 0-98.724 14.685-194.018 41.99-283.817l-1.804 6.9c-5.265 1.853-9.824 4.184-14.004 7.031l0.207-0.133zM512 10.347c-5.324 16.171-20.291 27.639-37.938 27.639-0.675 0-1.346-0.017-2.012-0.050l0.094 0.004h-6.132c-13.17-2.406-24.122-10.337-30.545-21.253l-0.113-0.208c-16.862 0-32.958 6.898-49.054 11.497-44.593 95.475-70.613 207.293-70.613 325.189 0 51.976 5.057 102.771 14.706 151.919l-0.812-4.964c14.647 152.692 82.526 287.246 184.598 386.948l0.121 0.118h31.425c2.174-11.789 9.604-21.49 19.719-26.728l0.209-0.099c5.887-3.234 12.902-5.136 20.36-5.136 14.755 0 27.771 7.445 35.497 18.784l0.096 0.149c190.987-50.143 329.583-221.234 329.583-424.695 0-0.514-0.001-1.027-0.003-1.54v0.080c0-0.002 0-0.004 0-0.006 0-241.747-195.321-437.874-436.762-439.179l-0.125-0.001zM446.85 132.982c-0.176 2.749-0.276 5.962-0.276 9.198s0.1 6.448 0.298 9.634l-0.022-0.437c-3.097 20.496-20.588 36.026-41.708 36.026-0.157 0-0.315-0.001-0.472-0.003h-6.108c-21.275-1.891-37.831-19.63-37.831-41.236 0-1.675 0.099-3.326 0.293-4.948l-0.019 0.196c1.241-11.373 3.671-21.755 7.197-31.617l-0.299 0.958c0-10.731 7.665-21.461 12.263-32.192 7.197-14.202 21.687-23.766 38.41-23.766 0.239 0 0.477 0.002 0.715 0.006h-0.036c6.415 0.265 12.436 1.648 17.973 3.96l-0.344-0.127c10.024 4.785 17.676 13.185 21.371 23.472l0.091 0.289c1.981 4.763 3.132 10.295 3.132 16.096s-1.151 11.333-3.237 16.381l0.104-0.285c-6.132 4.599-9.198 11.497-11.497 18.395zM385.533 218.060c11.526 1.453 21.346 7.739 27.506 16.729l0.086 0.133c5.111 6.632 8.191 15.058 8.191 24.204 0 2.28-0.191 4.514-0.559 6.689l0.033-0.235c-0.36 3.447-0.565 7.448-0.565 11.497s0.205 8.050 0.606 11.993l-0.041-0.496c0 9.198 0 16.862 0 23.76 0.123 1.197 0.193 2.587 0.193 3.993 0 21.577-16.512 39.298-37.589 41.217l-0.161 0.012c-0.034 0-0.074 0-0.114 0-21.78 0-39.63-16.823-41.267-38.183l-0.009-0.141c-0.365-5.044-0.573-10.929-0.573-16.862s0.208-11.818 0.617-17.647l-0.044 0.785c0.58-12.372 1.95-23.964 4.077-35.289l-0.244 1.565c3.082-19.644 19.886-34.494 40.158-34.494 0.164 0 0.327 0.001 0.49 0.003h-0.025zM207.713 428.838c0.081 0.988 0.127 2.138 0.127 3.299 0 22.13-16.748 40.349-38.261 42.672l-0.19 0.017h-3.832c-0.034 0-0.074 0-0.114 0-21.78 0-39.63-16.823-41.267-38.183l-0.009-0.141c-0.366-5.045-0.575-10.929-0.575-16.862s0.209-11.818 0.619-17.647l-0.044 0.784c0-13.030 0-27.593 3.832-39.090 3.427-20.484 20.973-35.918 42.144-36.024h6.143c20.315 2.861 35.773 20.128 35.773 41.006 0 2.3-0.188 4.556-0.548 6.754l0.032-0.24c0 8.431 0 21.461 0 32.192-1.487 5.845-2.832 13.134-3.742 20.557l-0.090 0.904zM380.934 383.617v0c22.218 0.813 39.922 19.021 39.922 41.363 0 0.818-0.024 1.631-0.071 2.437l0.005-0.111v33.725c0 10.731 0 17.629 0 19.928v0c0.458 2.333 0.72 5.016 0.72 7.759 0 20.281-14.322 37.217-33.403 41.246l-0.275 0.049h-8.431c-20.433-0.343-37.367-14.912-41.341-34.214l-0.048-0.277c-0.377-4.931-0.591-10.68-0.591-16.479s0.215-11.548 0.636-17.239l-0.045 0.76c-0.37-5.842-0.581-12.669-0.581-19.545s0.211-13.703 0.627-20.474l-0.046 0.929c0.394-22.132 18.428-39.922 40.617-39.922 0.811 0 1.617 0.024 2.416 0.071l-0.11-0.005zM207.713 648.814c-3.304 0.913-7.099 1.438-11.015 1.438-19.298 0-35.621-12.735-41.024-30.259l-0.081-0.304c0-5.365 0-14.563-5.365-27.593v0c0-13.796-4.599-26.826-6.132-35.257-0.319-1.929-0.501-4.153-0.501-6.419 0-21.144 15.855-38.585 36.325-41.083l0.199-0.020c0.66-0.387 1.453-0.616 2.299-0.616s1.64 0.229 2.321 0.628l-0.022-0.012c0.133-0.002 0.29-0.002 0.448-0.002 21.119 0 38.611 15.53 41.679 35.793l0.029 0.233c0 7.665 0 19.928 5.365 31.425v0c1.141 7.615 2.744 14.338 4.853 20.834l-0.254-0.906c0.913 3.304 1.438 7.099 1.438 11.015 0 19.298-12.735 35.621-30.259 41.024l-0.304 0.081zM445.317 697.102c-4.849 2.108-10.498 3.335-16.433 3.335-17.286 0-32.141-10.404-38.647-25.291l-0.106-0.271c-3.237-7.323-6.378-16.247-8.875-25.435l-0.322-1.391c0-13.030-7.665-26.060-9.964-35.257-0.673-2.974-1.059-6.39-1.059-9.896 0-8.171 2.096-15.853 5.78-22.537l-0.122 0.241c6.281-8.979 15.24-15.705 25.707-19.064l0.353-0.098h10.731c0.080-0.001 0.174-0.001 0.268-0.001 19.598 0 36.014 13.621 40.299 31.912l0.055 0.28c0 7.665 6.132 19.928 9.198 32.192 1.918 7.953 4.020 14.604 6.516 21.059l-0.384-1.131c1.385 3.958 2.185 8.521 2.185 13.27 0 17.002-10.252 31.61-24.912 37.979l-0.267 0.103zM506.635 851.162c-0.185 0.003-0.404 0.005-0.622 0.005-15.114 0-28.3-8.254-35.297-20.5l-0.105-0.199-26.826-45.988c-3.373-5.989-5.36-13.147-5.36-20.77 0-15.488 8.203-29.060 20.502-36.609l0.187-0.107c6.039-3.539 13.298-5.629 21.046-5.629 15.473 0 28.999 8.336 36.332 20.762l0.107 0.197 26.826 45.988c3.386 5.802 5.385 12.773 5.385 20.211 0 0.44-0.007 0.878-0.021 1.314l0.002-0.064c-0.431 22.95-19.136 41.389-42.149 41.389-0.002 0-0.005 0-0.007 0v0z" />
<glyph unicode="&#xe911;" glyph-name="ball-fill" d="M351.653 934.255c-0.541-2.602-1.326-4.901-2.356-7.061l0.080 0.186-13.418-29.585c-5.19-11.301-16.41-19.007-29.43-19.007-4.797 0-9.349 1.046-13.442 2.923l0.201-0.083c-8.606 3.905-15.064 11.262-17.676 20.256l-0.056 0.226c-164.995-87.259-275.506-257.792-275.506-454.137 0-141.39 57.306-269.396 149.96-362.057v0c3.935-3.935 7.965-7.87 11.995-11.616 2.212 1.223 4.774 2.218 7.475 2.851l0.205 0.041c2.312 0.592 4.966 0.931 7.699 0.931 15.116 0 27.806-10.388 31.321-24.415l0.047-0.223c1.138-4.741 2.608-9.103 4.314-13.797 1.328-3.556 2.797-7.112 4.409-10.715 15.203-10.922 32.715-21.918 50.893-31.847l2.683-1.342c-37.412 103.521-59.042 222.989-59.042 347.51 0 61.636 5.3 122.034 15.468 180.764l-0.898-6.27c20.911 165.634 86.365 313.005 183.841 433.384l-1.258-1.605c-22.941-4.667-42.244-9.954-61.038-16.341l3.48 1.027zM99.897 239.293c0 17.884 14.498 32.382 32.382 32.382s32.382-14.498 32.382-32.382v0c0.1-9.963 0.821-19.657 2.125-29.165l-0.134 1.192c1.359-10.673 3.17-19.999 5.52-29.108l-0.352 1.61c0.567-2.264 0.892-4.863 0.892-7.538 0-17.832-14.456-32.287-32.287-32.287-14.674 0-27.062 9.789-30.989 23.193l-0.057 0.228c-2.607 9.683-4.981 21.737-6.613 34.026l-0.166 1.533c-1.529 10.737-2.505 23.313-2.7 36.079l-0.003 0.239zM88.518 432.828c1.927 16.134 15.529 28.522 32.025 28.522 17.806 0 32.24-14.434 32.24-32.24 0-0.744-0.025-1.481-0.075-2.212l0.005 0.099c-0.053-1.888-0.083-4.109-0.083-6.337 0-6.697 0.271-13.331 0.803-19.891l-0.056 0.863c0.853-13.418 2.276-28.163 3.556-37.929 0.317-1.7 0.499-3.655 0.499-5.653 0-17.832-14.456-32.287-32.287-32.287-16.684 0-30.412 12.654-32.111 28.887l-0.012 0.14c-1.612 11.616-3.177 28.447-4.125 43.192-0.502 6.089-0.788 13.179-0.788 20.337 0 5.155 0.148 10.275 0.441 15.356l-0.032-0.703zM121.469 636.699c3.643 14.164 16.3 24.462 31.362 24.462 17.858 0 32.335-14.477 32.335-32.335 0-3.523-0.563-6.914-1.605-10.088l0.065 0.229c-1.328-4.741-3.271-13.986-5.263-24.227v-1.043c-2.323-12.374-4.741-26.645-6.211-36.507-2.392-15.686-15.787-27.564-31.956-27.564-17.842 0-32.305 14.464-32.305 32.305 0 1.673 0.127 3.316 0.372 4.921l-0.023-0.18c1.422 9.482 4.030 24.796 6.78 39.257v1.138c2.323 12.374 4.741 23.706 6.495 29.869zM194.246 817.859c5.351 10.868 16.347 18.214 29.059 18.214 17.832 0 32.287-14.456 32.287-32.287 0-4.504-0.922-8.793-2.589-12.688l0.080 0.211-24.607-54.192c-4.937-11.899-16.461-20.115-29.905-20.115-17.832 0-32.287 14.456-32.287 32.287 0 5.258 1.257 10.223 3.487 14.61l-0.085-0.184 24.607 54.144zM436.046-58.5c2.848 15.16 15.983 26.477 31.76 26.477 16.217 0 29.641-11.956 31.94-27.533l0.021-0.176c0-1.422 0.474-2.797 0.759-4.22 3.84 0 7.776 0 11.616 0 282.555 0.319 511.487 229.448 511.487 512.047 0 240.263-165.478 441.877-388.68 497.088l-3.519 0.736-4.741-7.965c-5.668-9.746-16.063-16.194-27.963-16.194-17.806 0-32.24 14.434-32.24 32.24 0 1.027 0.048 2.044 0.142 3.047l-0.010-0.128q-26.598 2.655-54.049 2.797c-121.943-98.474-194.388-270.721-221.887-451.787-31.339-204.724-5.737-418.551 69.363-549.408 21.054-6.773 46.648-12.786 72.879-16.875l2.98-0.383zM354.593 100.519c-0.223 1.425-0.35 3.068-0.35 4.741 0 17.842 14.464 32.305 32.305 32.305 16.169 0 29.563-11.878 31.933-27.385l0.023-0.18c1.367-8.564 3.231-16.088 5.654-23.356l-0.296 1.026c3.468-10.649 6.937-19.341 10.872-27.772l-0.631 1.505c1.874-3.963 2.968-8.61 2.968-13.512 0-17.808-14.436-32.245-32.245-32.245-12.906 0-24.041 7.582-29.194 18.535l-0.083 0.197c-4.31 9.058-8.731 20.283-12.458 31.821l-0.58 2.078c-3.204 9.16-5.944 20.103-7.726 31.366l-0.145 1.111zM328.232 305.148c1.732 16.327 15.428 28.936 32.070 28.936 17.806 0 32.24-14.434 32.24-32.24 0-0.956-0.042-1.903-0.123-2.838l0.009 0.121c-0.518-5.963-0.813-12.903-0.813-19.912 0-3.001 0.054-5.99 0.161-8.966l-0.012 0.43c0.269-10.045 1.173-19.636 2.677-29.027l-0.164 1.244c0.191-1.318 0.3-2.84 0.3-4.388 0-17.806-14.434-32.24-32.24-32.24-15.702 0-28.783 11.225-31.654 26.089l-0.033 0.203c-1.766 10.591-2.943 23.031-3.264 35.684l-0.007 0.349c-0.149 3.435-0.234 7.465-0.234 11.515 0 8.732 0.395 17.371 1.168 25.901l-0.080-1.099zM335.344 499.063c2.943 15.021 16.002 26.198 31.671 26.198 17.807 0 32.243-14.436 32.243-32.243 0-2.138-0.208-4.228-0.605-6.249l0.033 0.204c-1.066-7.379-1.75-16.029-1.894-24.81l-0.002-0.176c-0.474-13.512-0.474-28.447 0-38.688 0.060-0.74 0.095-1.602 0.095-2.472 0-17.832-14.456-32.287-32.287-32.287-17.818 0-32.264 14.433-32.287 32.245v0.002c-0.474 11.568-0.379 28.447 0 43.192 0.348 12.721 1.422 24.842 3.189 36.738l-0.202-1.653zM388.16 698.666c4.86 12.096 16.492 20.481 30.083 20.481 17.857 0 32.334-14.476 32.334-32.334 0-4.267-0.827-8.341-2.328-12.070l0.077 0.217c-1.802-4.741-4.741-13.607-7.586-23.706-3.746-12.849-7.681-27.214-10.051-36.697-3.582-14.226-16.262-24.591-31.363-24.591-17.836 0-32.295 14.459-32.295 32.295 0 2.735 0.34 5.391 0.98 7.927l-0.048-0.223c2.513 10.051 6.78 25.555 10.81 39.541 3.556 11.995 7.017 22.995 9.482 29.016zM478.243 871.956c5.67 9.75 16.068 16.201 27.973 16.201 17.811 0 32.25-14.439 32.25-32.25 0-5.906-1.588-11.442-4.36-16.203l0.083 0.154-29.775-51.537c-5.67-9.75-16.068-16.201-27.973-16.201-17.811 0-32.25 14.439-32.25 32.25 0 5.906 1.588 11.442 4.36 16.203l-0.083-0.154 29.395 51.537z" />
<glyph unicode="&#xe912;" glyph-name="bell" d="M606.72 869.12c-3.437 49.735-44.626 88.779-94.933 88.779s-91.496-39.043-94.917-88.482l-0.016-0.297c-0.201-2.237-0.316-4.838-0.316-7.467s0.115-5.23 0.34-7.8l-0.024 0.333c-139.624-51.076-237.576-182.568-238.080-337.005v-125.502s0-180.053-46.507-181.76c-0.674 0.035-1.462 0.055-2.256 0.055-24.268 0-44.154-18.759-45.948-42.568l-0.009-0.154c-0.049-0.786-0.076-1.704-0.076-2.628 0-24.104 18.857-43.804 42.624-45.153l0.119-0.005h762.88c24.318 1.124 43.609 21.113 43.609 45.608 0 23.139-17.214 42.257-39.535 45.247l-0.234 0.026h-3.84c-47.36 0-47.36 180.48-47.36 180.48v128c0.026 1.588 0.041 3.462 0.041 5.34 0 153.394-98.476 283.788-235.658 331.409l-2.463 0.744c2.133 2.987 2.56 8.107 2.56 12.8zM654.080 73.813c-4.25-75.278-66.331-134.712-142.293-134.712s-138.043 59.434-142.276 134.337l-0.017 0.375z" />
<glyph unicode="&#xe913;" glyph-name="card" d="M656.981-21.163l-11.136 2.859-315.733 102.4c-43.367 14.311-75.365 51.483-81.971 96.887l-0.077 0.649h-61.355c-66.308 0.121-120.028 53.842-120.149 120.138v498.144c0.121 66.308 53.842 120.028 120.138 120.149h332.512c0.066 0 0.144 0 0.222 0 33.223 0 63.271-13.596 84.884-35.527l0.014-0.014c21.257-21.365 34.398-50.824 34.398-83.352 0-0.502-0.003-1.003-0.009-1.503l0.001 0.076v-38.784l235.093-76.331c48.707-15.946 83.269-60.987 83.269-114.1 0-9.467-1.098-18.678-3.174-27.511l0.161 0.812-2.901-11.179-153.6-473.6c-16.171-48.674-61.293-83.157-114.468-83.157-0.002 0-0.005 0-0.007 0v0c-9.261 0.006-18.268 1.079-26.91 3.101l0.798-0.157zM346.624 158.72l6.955-3.243 315.221-102.4c4.072-1.327 8.759-2.093 13.624-2.093 0.145 0 0.29 0.001 0.435 0.002h-0.022c0.158-0.002 0.345-0.003 0.533-0.003 17.224 0 32.16 9.794 39.543 24.117l0.117 0.249 3.243 6.955 153.6 473.6c1.362 4.14 2.148 8.905 2.148 13.853 0 17.395-9.711 32.523-24.008 40.257l-0.242 0.12-7.125 3.2-211.84 68.736v-380.203c-0.049-66.337-53.812-120.101-120.145-120.149h-193.114c4.078-10.093 11.484-18.134 20.83-22.925l0.248-0.115zM141.397 799.915v-498.133c-0.002-0.14-0.002-0.306-0.002-0.472 0-24.884 20.172-45.056 45.056-45.056 0.166 0 0.332 0.001 0.497 0.003h331.794c0.14-0.002 0.306-0.002 0.472-0.002 24.884 0 45.056 20.172 45.056 45.056 0 0.166-0.001 0.332-0.003 0.497v-0.025 498.133c0.001 0.128 0.002 0.279 0.002 0.431 0 24.813-20.115 44.928-44.928 44.928-0.211 0-0.421-0.001-0.631-0.004h-331.787c-24.959-0.307-45.122-20.41-45.525-45.317v-0.038zM308.224 409.472v20.523l24.064 17.749 3.797 29.269c-9.728-1.451-19.328-3.413-28.672-5.333-11.704-3.091-25.353-5.24-39.372-5.994l-0.521-0.022c-1.033-0.114-2.232-0.179-3.445-0.179-11.847 0-22.247 6.199-28.133 15.53l-0.081 0.137c-19.371 32.128-4.992 64 26.155 108.672 5.803 7.936 11.947 16.512 17.92 25.045 42.667 59.733 62.336 85.931 73.131 85.931 7.893 0 17.579-12.8 41.515-46.933 16.025-24.076 32.062-44.953 49.363-64.693l-0.595 0.693c47.616-49.579 37.12-89.6 26.667-109.013-4.718-8.16-13.402-13.563-23.349-13.563-1.049 0-2.083 0.060-3.1 0.177l0.124-0.012c-12.158 0.603-23.597 2.342-34.621 5.123l1.213-0.259c-11.558 2.739-25.48 4.943-39.686 6.154l-1.104 0.076 5.12-31.573 24.704-17.749v-20.053zM691.243 531.712l83.157 59.733 40.363-92.843-89.6-61.227z" />
<glyph unicode="&#xe914;" glyph-name="card-fill" d="M664.107-41.899l-10.837 2.901-308.437 100.011c-43.528 14.54-75.347 52.564-80.632 98.655l-0.051 0.545-0.512 4.736h265.472c60.147 0.073 108.892 48.788 109.013 108.916v451.724l238.165-77.397c47.645-15.65 81.442-59.733 81.442-111.709 0-9.179-1.054-18.111-3.047-26.683l0.155 0.792-2.773-10.88-150.315-463.061c-15.771-47.643-59.894-81.416-111.91-81.451h-0.004c-9.13 0.018-18.003 1.074-26.522 3.057l0.794-0.156zM707.712 495.701l27.435-75.776 72.533 49.621-32.427 74.752zM163.029 198.144c-64.904 0.097-117.492 52.686-117.589 117.58v486.836c0.097 64.904 52.686 117.492 117.58 117.589h324.873c0.096 0 0.21 0 0.325 0 32.471 0 61.843-13.267 82.992-34.677l0.012-0.012c20.807-20.84 33.674-49.613 33.674-81.391 0-0.531-0.004-1.061-0.011-1.59l0.001 0.080v-486.827c-0.049-64.893-52.617-117.492-117.495-117.589h-0.009zM317.781 491.093l-4.907-37.333-22.912-17.067v-7.381h72.107v6.784l-23.424 17.067-7.211 44.373h5.077c15.29-0.679 29.72-2.68 43.682-5.903l-1.612 0.313 4.267-0.853c9.083-2.304 19.712-3.933 30.613-4.545l0.449-0.020c12.117 0 16.128 4.651 18.261 8.533 11.264 20.693 16 54.315-24.619 96.725-16.648 18.838-32.61 39.449-47.201 61.062l-1.354 2.128c-9.743 16.028-20.868 29.867-33.557 42.093l-0.064 0.061c-24.224-23.616-45.575-49.986-63.602-78.657l-1.038-1.769-17.493-24.448c-33.152-47.275-39.893-72.533-25.259-96.981 4.423-6.763 11.961-11.169 20.528-11.169 1.111 0 2.206 0.074 3.278 0.218l-0.125-0.014c13.597 0.753 26.34 2.748 38.624 5.888l-1.376-0.298c10.923 2.304 22.315 4.651 34.133 6.101l5.845 0.683z" />
<glyph unicode="&#xe915;" glyph-name="evo" d="M512.432 960c-282.857 0-512.186-229.177-512.432-511.976v-32.429c17.547-268.476 239.605-479.593 510.973-479.593 282.77 0 512 229.23 512 512 0 282.257-228.4 511.168-510.462 511.998h-0.079zM862.839 304.122c-13.886-33.018-30.999-61.503-51.535-87.125l0.551 0.712 59.193-34.133c-72.497-97.195-181.768-163.494-306.822-178.242l-2.106-0.202v67.835c-14.993-2.126-32.373-3.379-50.031-3.456h-0.089c-0.059 0-0.129 0-0.199 0-17.774 0-35.218 1.414-52.225 4.136l1.873-0.247v-68.699c-127.058 14.857-236.226 81.19-307.65 177.253l-0.846 1.191 59.193 34.133c-19.626 24.949-36.581 53.415-49.619 83.954l-0.933 2.459-59.625-34.133c-23.616 52.532-37.438 113.854-37.59 178.388v10.426c1.212 61.22 14.77 118.969 38.273 171.282l-1.115-2.775 60.489-34.565c13.848 33.007 30.814 61.485 51.14 87.184l-0.588-0.77-59.625 34.565c13.722 18.704 27.894 35.205 43.215 50.56l-0.008-0.008c68.94 70.077 160.911 117.31 263.635 129.42l2.086 0.2v-69.563c15.135 2.475 32.578 3.889 50.352 3.889 0.070 0 0.14 0 0.21 0h-0.011c17.861-0.024 35.373-1.437 52.457-4.137l-1.905 0.248v69.131c127.038-15.234 236.128-81.646 307.649-177.686l0.847-1.19-59.193-34.133c19.553-24.962 36.502-53.42 49.601-83.923l0.951-2.49 59.625 34.565c23.484-52.431 37.163-113.635 37.163-178.034 0-0.752-0.002-1.503-0.006-2.254v0.116c0-0.129 0-0.282 0-0.435 0-64.432-13.84-125.63-38.71-180.786l1.12 2.777zM512.432 788.901c-0.128 0-0.28 0-0.432 0-188.275 0-340.901-152.627-340.901-340.901s152.627-340.901 340.901-340.901c188.275 0 340.901 152.627 340.901 340.901v0c0 0.128 0 0.28 0 0.432 0 188.036-152.433 340.469-340.469 340.469 0 0 0 0-0.001 0v0zM512.432 179.686c-0.128 0-0.28 0-0.432 0-148.186 0-268.314 120.128-268.314 268.314s120.128 268.314 268.314 268.314c148.186 0 268.314-120.128 268.314-268.313v0c0 0 0 0 0 0 0-148.034-119.882-268.067-267.858-268.314h-0.024zM618.289 537.438h-45.799c-2.499 15.313-8.446 28.907-17.025 40.427l0.174-0.244h63.082c0.014 0 0.031 0 0.048 0 4.295 0 7.777 3.482 7.777 7.777 0 0.305-0.018 0.605-0.052 0.9l0.003-0.036v27.22c0.013 0.165 0.021 0.357 0.021 0.551 0 4.057-3.289 7.345-7.345 7.345-0.466 0-0.921-0.043-1.362-0.126l0.046 0.007h-223.811c-0.003 0-0.007 0-0.011 0-4.534 0-8.209-3.675-8.209-8.209 0-0.152 0.004-0.303 0.012-0.453l-0.001 0.021v-34.997c0.225-4.679 3.962-8.417 8.621-8.641l0.021-0.001h39.318c37.59 0 61.786-9.938 72.155-30.245h-111.905c-0.003 0-0.007 0-0.011 0-4.534 0-8.209-3.675-8.209-8.209 0-0.152 0.004-0.303 0.012-0.453l-0.001 0.021v-28.516c0-0.014 0-0.031 0-0.048 0-4.295 3.482-7.777 7.777-7.777 0.305 0 0.605 0.018 0.9 0.052l-0.036-0.003h115.362c-4.070-14.907-14.121-26.936-27.348-33.563l-0.304-0.138c-15.341-7.666-33.42-12.153-52.548-12.153-1.273 0-2.542 0.020-3.806 0.059l0.185-0.005h-31.541c-4.583-0.237-8.209-4.010-8.209-8.631 0-0.004 0-0.008 0-0.011v0.001-34.565c0.035-2.372 1.020-4.507 2.591-6.048l0.001-0.001c34.565-36.726 78.636-86.414 133.941-153.384 1.215-2.090 3.444-3.474 5.997-3.474 0.17 0 0.339 0.006 0.507 0.018l-0.022-0.001h52.712c0.266-0.034 0.573-0.053 0.885-0.053 3.145 0 5.829 1.977 6.876 4.756l0.017 0.051c0.978 1.236 1.569 2.817 1.569 4.537s-0.591 3.301-1.58 4.552l0.012-0.015c-52.28 64.378-93.327 112.338-124.003 143.878 28.552 2.348 54.231 13.038 75.029 29.597l-0.281-0.216c18.259 15.779 30.832 37.701 34.498 62.524l0.068 0.558h46.231c0.014 0 0.031 0 0.048 0 4.295 0 7.777 3.482 7.777 7.777 0 0.305-0.018 0.605-0.052 0.9l0.003-0.036v28.949c0.082 0.411 0.128 0.883 0.128 1.366 0 4.057-3.289 7.345-7.345 7.345-1.317 0-2.552-0.346-3.621-0.953l0.036 0.019z" />
<glyph unicode="&#xe916;" glyph-name="evo-fill" d="M870.188 814.685c-91.919 90.259-218.023 145.974-357.14 145.974-143.124 0-272.475-58.971-365.080-153.941l-0.103-0.107c-92.429-92.429-149.598-220.119-149.598-361.162 0-282.085 228.675-510.76 510.76-510.76 141.042 0 268.732 57.169 361.162 149.598l8.073 8.073c90.259 91.919 145.974 218.023 145.974 357.14 0 143.124-58.971 272.475-153.941 365.080l-0.107 0.103zM900.355 732.256c19.82-26.803 37.835-57.217 52.637-89.414l1.324-3.214-70.533-42.49c-15.013 36.201-33.563 67.44-55.864 95.572l0.627-0.82zM455.914 925.159c16.126 2.085 34.856 3.318 53.859 3.399h0.103c18.955-0.081 37.537-1.314 55.779-3.632l-2.243 0.233v-80.73c-15.978 2.549-34.509 4.088-53.37 4.248l-0.167 0.001c-18.271 0-36.116 0-53.962-3.824zM121.095 732.256l70.108-42.49c-20.865-26.116-38.822-55.934-52.575-87.983l-0.962-2.52-70.108 40.365c15.752 35.391 33.647 65.826 54.477 93.956l-0.94-1.329zM121.095 159.92c-20.012 26.803-37.915 57.248-52.328 89.591l-1.209 3.037 70.108 42.49c14.656-35.377 32.632-65.907 54.194-93.5l-0.657 0.873zM563.412-32.558c-16.072-2.029-34.669-3.187-53.537-3.187s-37.465 1.158-55.724 3.407l2.187-0.22v79.88c14.132-2.205 30.431-3.465 47.024-3.465 2.29 0 4.574 0.024 6.853 0.072l-0.341-0.006c18.892 0.005 37.454 1.395 55.596 4.074l-2.060-0.25zM509.876 83.864c-199.933 0-362.011 162.078-362.011 362.012s162.078 362.012 362.012 362.012c199.784 0 361.769-161.836 362.011-361.563v-0.024c0.001-0.252 0.001-0.551 0.001-0.85 0-199.699-161.888-361.587-361.587-361.587-0.15 0-0.3 0-0.449 0h0.023zM900.355 159.92l-70.533 42.49c21.148 26.705 39.268 57.241 53.010 90.065l0.951 2.562 70.108-42.49c-15.752-35.391-33.647-65.826-54.477-93.956l0.94 1.329zM509.876 728.432c-156.051 0-282.556-126.505-282.556-282.556s126.505-282.556 282.556-282.556c156.051 0 282.556 126.505 282.556 282.556 0 0.149 0 0.299 0 0.448v-0.023c-0.242 155.869-126.654 282.131-282.556 282.131 0 0 0 0-0.001 0v0zM632.246 503.237v0c-0.227-4.746-4.131-8.509-8.913-8.509-0.153 0-0.305 0.004-0.456 0.011l0.021-0.001h-48.013c-4.067-26.887-17.504-50.072-36.817-66.585l-0.149-0.124c-21.496-17.452-48.513-28.893-78.075-31.406l-0.531-0.036c31.442-33.142 75.632-84.979 131.293-152.963 1.098-1.315 1.764-3.023 1.764-4.886s-0.667-3.572-1.774-4.898l0.010 0.012c-1.202-3.043-4.118-5.157-7.528-5.157-0.342 0-0.679 0.021-1.009 0.062l0.039-0.004h-54.387c-0.064-0.002-0.139-0.003-0.214-0.003-2.835 0-5.361 1.322-6.995 3.383l-0.014 0.018c-58.211 70.108-106.224 124.92-142.34 163.16-1.577 1.544-2.555 3.695-2.555 6.074 0 0.105 0.002 0.21 0.006 0.315v-0.015 35.266c-0.006 0.127-0.010 0.275-0.010 0.425 0 4.928 3.995 8.923 8.923 8.923 0.004 0 0.007 0 0.011 0h31.442c1.681-0.077 3.652-0.121 5.634-0.121 19.514 0 38.030 4.271 54.665 11.929l-0.813-0.336c14.322 7.185 24.969 19.914 29.225 35.297l0.093 0.394h-121.52c-4.746 0.227-8.509 4.131-8.509 8.913 0 0.153 0.004 0.305 0.011 0.456l-0.001-0.021v28.468c0.227 4.746 4.131 8.509 8.913 8.509 0.153 0 0.305-0.004 0.456-0.011l-0.021 0.001h118.121c-10.622 21.245-36.541 32.292-76.481 32.292h-42.49c-4.928 0-8.923 3.995-8.923 8.923v0 40.365c0.227 4.746 4.131 8.509 8.913 8.509 0.153 0 0.305-0.004 0.456-0.011l-0.021 0.001h238.792c4.784-0.45 8.498-4.446 8.498-9.309 0-0.014 0-0.027 0-0.041v0.002-29.318c-0.634-4.708-4.543-8.324-9.33-8.497h-65.876c8.961-11.93 15.384-26.278 18.181-41.884l0.090-0.605h49.713c4.746-0.227 8.509-4.131 8.509-8.913 0-0.153-0.004-0.305-0.011-0.456l0.001 0.021z" />
<glyph unicode="&#xe917;" glyph-name="flight" d="M431.787-20.565c-6.303 0.841-11.821 3.699-15.999 7.892l-0.001 0.001c-1.693 1.743-3.178 3.703-4.404 5.831l-0.076 0.143-67.328 118.315-0.555-0.512c-4.93-4.521-11.529-7.291-18.775-7.291-7.659 0-14.595 3.095-19.626 8.103l-44.714 44.5-17.365-17.365c-5.019-4.814-11.845-7.778-19.363-7.778-15.458 0-27.989 12.531-27.989 27.989 0 7.507 2.956 14.325 7.767 19.351l-0.010-0.010 17.365 17.323-46.208 46.251c-5.068 5.066-8.203 12.065-8.203 19.797 0 7.276 2.776 13.903 7.327 18.88l-0.019-0.021-115.968 66.133c-2.287 1.255-4.252 2.744-5.972 4.478l-0.002 0.002c-5.035 5.073-8.147 12.061-8.147 19.776s3.112 14.703 8.149 19.778l70.867 70.825c5.057 5.056 12.043 8.184 19.76 8.184 1.946 0 3.846-0.199 5.68-0.578l-0.181 0.031 168.277-33.707c30.72 33.237 64 69.547 98.133 106.453l-288.085 200.533c-1.354 1.011-2.551 2.046-3.671 3.159l0.002-0.002c-5.074 5.047-8.214 12.034-8.214 19.755s3.14 14.707 8.213 19.753l81.068 81.068c5.031 5.015 11.973 8.116 19.639 8.116 2.888 0 5.673-0.44 8.292-1.257l-0.197 0.053 385.067-113.579c36.181 38.656 64.384 68.267 78.891 82.816 34.778 35.272 79.642 60.513 129.914 71.046l1.67 0.293c10.213 2.783 21.939 4.382 34.038 4.382 33.609 0 64.337-12.336 87.902-32.728l-0.17 0.144c20.287-23.351 32.652-54.057 32.652-87.651 0-12.114-1.608-23.853-4.622-35.014l0.216 0.938c-10.815-51.973-36.092-96.86-71.39-131.593l-0.034-0.034c-14.293-14.293-43.733-42.069-81.835-77.824l114.475-387.712c0.724-2.372 1.141-5.099 1.141-7.923 0-7.711-3.108-14.695-8.141-19.769l-81.065-81.065c-5.099-5.074-12.129-8.211-19.893-8.211-0.853 0-1.696 0.038-2.53 0.112l0.108-0.008c-6.71 0.647-12.633 3.59-17.067 8.021v0c-1.145 1.144-2.208 2.369-3.18 3.667l-0.063 0.088-202.112 290.133c-36.608-33.749-72.533-66.944-105.685-97.365l34.432-171.221c0.341-1.641 0.535-3.526 0.535-5.457 0-7.728-3.122-14.726-8.174-19.803l0.001 0.001-70.784-70.869c-5.028-5.035-11.978-8.15-19.655-8.15-0.035 0-0.070 0-0.105 0h0.005c-1.446 0.038-2.83 0.176-4.181 0.408l0.171-0.024zM386.133 150.357l55.467-97.579 34.133 34.133-24.747 123.221zM646.656 390.272l187.349-268.8 45.781 45.568-101.803 344.96c-39.936-37.333-85.291-79.232-131.115-121.685zM374.528 310.144c5.076-5.054 8.218-12.048 8.218-19.776s-3.141-14.722-8.217-19.775l-74.625-74.625 25.6-25.6c92.032 84.352 476.416 437.291 540.501 501.419 27.507 27.103 47.287 61.978 55.778 101.064l0.243 1.336c2.108 6.91 3.322 14.853 3.322 23.079 0 18.371-6.053 35.328-16.275 48.986l0.153-0.214c-13.46 10.050-30.425 16.091-48.802 16.091-8.199 0-16.117-1.203-23.587-3.441l0.581 0.149c-40.412-8.77-75.278-28.542-102.378-55.999l-0.022-0.022c-64.299-64-417.408-448-501.803-540.075l27.221-27.221 74.624 74.581c5.061 5.079 12.062 8.222 19.797 8.222s14.736-3.143 19.797-8.221l0.001-0.001zM117.163 377.344l95.232-54.357c16.085 17.536 36.352 39.552 59.392 64.555l-120.235 24.149zM185.685 769.493l266.88-185.899c42.197 45.739 84.011 90.795 121.088 130.517l-342.4 100.821zM866.987 713.003c-12.276 3.051-21.229 13.977-21.229 26.994 0 2.461 0.32 4.848 0.921 7.12l-0.044-0.194c1.196 3.254 1.888 7.012 1.888 10.932 0 7.801-2.74 14.962-7.311 20.573l0.047-0.059c-5.568 4.527-12.746 7.268-20.564 7.268-3.932 0-7.702-0.693-11.194-1.965l0.228 0.072c-2.024-0.524-4.348-0.825-6.741-0.825-15.442 0-27.961 12.518-27.961 27.961 0 13.049 8.938 24.009 21.026 27.094l0.194 0.042c7.438 2.302 15.988 3.628 24.849 3.628 23.126 0 44.143-9.032 59.714-23.762l-0.041 0.038c14.826-15.51 23.951-36.578 23.951-59.777 0-8.808-1.315-17.309-3.76-25.316l0.161 0.613c-3.080-12.338-14.066-21.333-27.153-21.333-0.009 0-0.018 0-0.027 0h0.001c-2.475 0.009-4.87 0.336-7.152 0.94l0.197-0.044z" />
<glyph unicode="&#xe918;" glyph-name="flight-fill" d="M436.011-20.48c-0.018 0-0.040 0-0.062 0-1.347 0-2.673 0.093-3.971 0.273l0.15-0.017c-6.298 0.861-11.811 3.714-16.001 7.894l0.001-0.001c-1.688 1.733-3.171 3.679-4.404 5.789l-0.076 0.142-67.499 118.357-0.555-0.555c-4.894-4.573-11.489-7.381-18.739-7.381-0.027 0-0.054 0-0.081 0h0.004c-0.030 0-0.065 0-0.1 0-7.698 0-14.665 3.132-19.696 8.191l-0.001 0.001c0 0.256-5.973 6.272-44.032 44.373l114.773 114.645c4.637 5.040 7.48 11.795 7.48 19.213 0 15.694-12.722 28.416-28.416 28.416-7.418 0-14.173-2.843-19.233-7.498l0.020 0.018-114.773-114.688c-10.709 10.709-45.611 45.483-46.080 45.781-5.085 5.049-8.232 12.043-8.232 19.773 0 7.275 2.788 13.898 7.354 18.861l-0.018-0.020-115.968 66.133c-2.27 1.258-4.221 2.746-5.928 4.477l-0.003 0.003c-5.046 5.068-8.165 12.058-8.165 19.776s3.119 14.708 8.166 19.777l70.868 70.826c5.052 5.061 12.035 8.192 19.75 8.192 0.017 0 0.033 0 0.050 0h-0.003c1.952-0.007 3.852-0.208 5.688-0.586l-0.184 0.032 168.235-33.707q43.52 46.933 92.331 100.053l5.845 6.357-288 200.533c-1.36 0.984-2.559 2.006-3.67 3.115v0c-4.413 4.451-7.36 10.361-8.054 16.944l-0.010 0.123c-0.072 0.755-0.114 1.632-0.114 2.518 0 7.713 3.125 14.697 8.178 19.754l81.066 81.066c5.014 5.026 11.946 8.135 19.605 8.135 2.853 0 5.606-0.432 8.196-1.233l-0.196 0.052 384.853-113.579c36.992 39.467 64.981 68.864 78.891 82.731 34.752 35.321 79.626 60.586 129.921 71.091l1.663 0.291c10.562 2.1 22.723 3.325 35.163 3.371h0.037c1.506 0.067 3.272 0.106 5.047 0.106 31.474 0 60.133-12.055 81.611-31.8l-0.087 0.079c20.262-23.333 32.61-54.010 32.61-87.572 0-12.112-1.608-23.849-4.623-35.008l0.216 0.937c-10.742-51.922-35.934-96.78-71.14-131.513l-0.028-0.028c-15.445-15.403-48.469-46.507-81.835-77.824l114.475-387.541c0.722-2.366 1.137-5.086 1.137-7.903 0-7.724-3.124-14.719-8.178-19.789l-81.066-81.066c-5.118-5.060-12.156-8.187-19.924-8.192h-2.39c-6.719 0.609-12.652 3.56-17.064 8.019l-0.002 0.002c-1.159 1.138-2.223 2.365-3.184 3.671l-0.059 0.084-202.027 290.133-105.472-97.152 34.389-171.179c0.345-1.647 0.543-3.539 0.543-5.478 0-7.709-3.126-14.688-8.18-19.738l-70.87-70.827c-5.003-5.085-11.96-8.236-19.652-8.236-0.096 0-0.192 0-0.289 0.001h0.015zM820.523 786.859c0.407 0.022 0.883 0.035 1.362 0.035 6.984 0 13.344-2.672 18.114-7.050l-0.020 0.018c4.54-5.531 7.292-12.68 7.292-20.472 0-3.936-0.702-7.708-1.988-11.198l0.072 0.224c-0.542-2.052-0.853-4.407-0.853-6.836 0-13.047 8.982-23.996 21.099-27.002l0.191-0.040c2.022-0.506 4.345-0.801 6.735-0.811h0.006c0.005 0 0.011 0 0.017 0 13.079 0 24.056 8.998 27.079 21.141l0.040 0.192c2.316 7.444 3.65 16.003 3.65 24.873 0 23.116-9.060 44.116-23.823 59.643l0.034-0.037c-14.631 14.441-34.742 23.361-56.937 23.361-0.668 0-1.334-0.008-1.999-0.024l0.098 0.002c-9.114-0.050-17.93-1.23-26.345-3.406l0.745 0.163c-7.317-1.886-13.325-6.503-16.997-12.673l-0.070-0.127c-2.533-4.124-4.034-9.119-4.034-14.464 0-15.435 12.512-27.947 27.947-27.947 0.008 0 0.016 0 0.025 0h-0.001c0.002 0 0.005 0 0.007 0 2.39 0 4.712 0.296 6.93 0.852l-0.196-0.042c3.526 0.962 7.588 1.549 11.775 1.621l0.044 0.001z" />
<glyph unicode="&#xe919;" glyph-name="slot" d="M277.333-25.6c-0.232-0.005-0.506-0.008-0.781-0.008-21.514 0-38.955 17.441-38.955 38.955 0 0.348 0.005 0.695 0.014 1.040l-0.001-0.051c-0.022 1.987-0.034 4.333-0.034 6.683 0 98.142 21.727 191.209 60.633 274.654l-1.676-4.003c27.411 65.795 73.995 119.052 132.718 154.069l1.469 0.811c38.992 25.607 71.334 57.991 96.126 95.773l0.77 1.251c-7.125-0.341-14.677-0.469-22.613-0.469-51.091 0.339-100.284 7.906-146.784 21.728l3.723-0.95c-12.159 3.665-26.391 6.372-41.048 7.586l-0.766 0.051c-25.6 0-31.317-5.845-31.317-31.147v-71.211c0.007-0.283 0.012-0.615 0.012-0.949 0-21.538-17.46-38.997-38.997-38.997-0.319 0-0.637 0.004-0.955 0.011l0.047-0.001h-85.333c-0.27-0.007-0.588-0.011-0.908-0.011-21.538 0-38.997 17.46-38.997 38.997 0 0.334 0.004 0.667 0.013 0.998l-0.001-0.049v369.749c-0.007 0.283-0.012 0.615-0.012 0.949 0 21.538 17.46 38.997 38.997 38.997 0.319 0 0.637-0.004 0.955-0.011l-0.047 0.001h85.333c0.27 0.007 0.588 0.011 0.908 0.011 21.538 0 38.997-17.46 38.997-38.997 0-0.334-0.004-0.667-0.013-0.998l0.001 0.049v-4.267c38.505 25.84 85.44 42.006 136.011 44.058l0.522 0.017c46.511-1.246 89.516-15.227 125.954-38.562l-0.983 0.589 4.864-2.731c23.2-17.333 51.94-28.473 83.165-30.483l0.461-0.024c47.568 4.032 89.56 25.133 120.395 57.075l0.053 0.056 0.811 0.853c6.447 7.745 15.924 12.779 26.586 13.266l0.080 0.003c0.714 0.045 1.549 0.071 2.39 0.071 10.407 0 19.893-3.947 27.041-10.427l-0.034 0.030 42.667-42.667c7.321-7.104 11.865-17.036 11.865-28.029 0-10.825-4.405-20.62-11.521-27.692l-0.002-0.002c-45.942-78.013-86.23-168.224-116.144-263.039l-2.555-9.388c-35.167-85.279-64.513-185.53-83.235-289.473l-1.373-9.193c1.549-60.557 10.874-118.314 27.011-173.153l-1.198 4.748c1.482-4.067 2.421-8.765 2.6-13.656l0.002-0.083c0.066-0.87 0.103-1.884 0.103-2.907 0-7.941-2.262-15.354-6.177-21.629l0.1 0.173c-6.306-10.847-17.798-18.068-30.991-18.261h-0.027zM635.733 645.803c12.458-6.712 20.782-19.663 20.782-34.559 0-6.043-1.37-11.767-3.817-16.877l0.102 0.235c-0.811-1.621-89.941-165.675-187.307-216.021-43.982-29.863-77.989-71.452-97.878-120.293l-0.64-1.776c-27.533-59.267-45.177-128.287-48.884-200.986l-0.054-1.339h276.779c-9.603 43.359-15.4 93.365-15.996 144.621l-0.004 0.445c0 68.608 62.507 253.227 81.707 308.096 35.846 105.583 71.663 191.942 112.192 275.593l-6.25-14.302c-35.934-24.56-80.139-39.525-127.789-40.36l-0.211-0.003c-42.964 1.084-82.646 14.241-116.037 36.186l0.837-0.517c-2.731 1.451-5.504 2.901-8.064 4.267l-5.675 3.072c-23.841 16.147-52.892 26.35-84.221 27.889l-0.387 0.015c-55.611-6.567-104.605-30.822-142.163-66.895l0.083 0.079v-0.683l-7.595-7.424c-7.615-6.522-17.585-10.492-28.481-10.492-1.344 0-2.674 0.060-3.987 0.179l0.169-0.012h-5.973l-5.504 2.731c-13.514 6.833-22.618 20.613-22.618 36.518 0 0.212 0.002 0.423 0.005 0.634v-0.032 45.355h-5.803v-290.133h5.803v31.317c-0.222 2.532-0.348 5.479-0.348 8.455 0 56.79 46.037 102.827 102.827 102.827 2.976 0 5.923-0.126 8.835-0.374l-0.38 0.026c11.594-0.393 22.622-1.926 33.247-4.495l-1.119 0.229c7.893-1.451 16-3.243 25.045-4.267l1.792-0.341 1.792-0.512c37.067-11.676 79.726-18.601 123.939-19.028l0.221-0.002c4.426-0.434 9.568-0.682 14.768-0.682 24.908 0 48.49 5.681 69.52 15.818l-0.959-0.417c6.565 7.851 16.364 12.809 27.321 12.809 0.28 0 0.559-0.003 0.838-0.010l-0.041 0.001c0.145 0.002 0.316 0.003 0.488 0.003 6.967 0 13.54-1.689 19.332-4.679l-0.236 0.111z" />
<glyph unicode="&#xe91a;" glyph-name="slot-fill" d="M867.371 834.133l-43.947 43.947c-2.944 2.987-5.888 2.987-11.733 2.987-4.594-0.774-8.606-2.859-11.742-5.854l0.009 0.008c-36.614-38.342-86.853-63.399-142.917-67.374l-0.699-0.040c-37.64 1.945-71.929 14.836-100.146 35.52l0.519-0.363c-32.775 23.009-73.271 37.124-117.008 38.097l-0.24 0.004c-65.41-5.655-123.939-31.303-170.423-70.72l0.439 0.363v55.723c0.014 0.237 0.023 0.514 0.023 0.793 0 7.658-6.208 13.867-13.867 13.867-0.293 0-0.584-0.009-0.873-0.027l0.040 0.002h-88.064c-7.858-0.534-14.101-6.776-14.632-14.586l-0.003-0.048v-381.013c0.534-7.858 6.776-14.101 14.586-14.632l0.048-0.003h87.936c0.236-0.014 0.512-0.023 0.791-0.023 7.658 0 13.867 6.208 13.867 13.867 0 0.278-0.008 0.554-0.024 0.828l0.002-0.038v73.259c0 41.045 17.579 58.624 58.624 58.624 18.081-0.859 35.108-4.011 51.235-9.177l-1.4 0.387c42.007-12.272 90.37-19.713 140.346-20.517l0.454-0.006c2.663-0.091 5.792-0.142 8.933-0.142 24.952 0 49.144 3.259 72.171 9.374l-1.958-0.442c-36.713-63.486-84.868-116.312-142.116-157.232l-1.5-1.019c-87.936-46.933-184.661-211.029-184.661-422.059 0.534-7.858 6.776-14.101 14.586-14.632l0.048-0.003h381.013c0.25-0.016 0.542-0.025 0.836-0.025 7.635 0 13.824 6.189 13.824 13.824 0 0.294-0.009 0.586-0.027 0.876l0.002-0.040c0.051 0.394 0.081 0.85 0.081 1.313 0 2.907-1.153 5.544-3.027 7.479l0.003-0.003c-15.674 54.195-25.227 116.605-26.359 181.069l-0.009 0.648c0 90.837 164.139 548.053 216.875 606.677 2.713 2.585 4.4 6.226 4.4 10.261s-1.687 7.676-4.394 10.256l-0.006 0.005z" />
<glyph unicode="&#xe91b;" glyph-name="username-fill" d="M504.101 872.229c-238.638 0-432.091-193.454-432.091-432.091s193.454-432.091 432.091-432.091c238.638 0 432.091 193.454 432.091 432.091v0c-0.726 238.345-193.746 431.366-432.022 432.091h-0.070zM504.101 742.619c71.518-0.083 129.463-58.079 129.463-129.609 0-71.581-58.028-129.609-129.609-129.609-71.568 0-129.588 58.007-129.609 129.57v0.002c-0.014 0.693-0.021 1.509-0.021 2.328 0 70.309 56.996 127.305 127.305 127.305 0.869 0 1.736-0.009 2.601-0.026l-0.13 0.002zM504.101 129.061c-107.422 0.575-202.059 54.789-258.559 137.202l-0.696 1.075c0 86.418 172.837 133.961 259.255 133.961s259.255-47.543 259.255-133.961c-57.189-83.502-151.827-137.73-259.165-138.313h-0.090z" />
<glyph unicode="&#xe91c;" glyph-name="close-circle-fill" d="M512 960c-282.836 0-512-229.164-512-512s229.164-512 512-512 512 229.164 512 512-229.164 512-512 512zM664.188 328.474c3.001-3.001 3.001-7.945 0-10.946l-21.892-21.892c-3.001-3.001-7.945-3.001-10.946 0l-119.349 119.526-119.526-119.526c-3.001-3.001-7.945-3.001-10.946 0l-21.892 21.892c-3.001 3.001-3.001 7.945 0 10.946l119.526 119.526-119.526 119.526c-3.001 3.001-3.001 7.945 0 10.946l21.892 21.892c3.001 3.001 7.945 3.001 10.946 0l119.526-119.526 119.526 119.349c3.001 3.001 7.945 3.001 10.946 0l21.892-21.892c3.001-3.001 3.001-7.945 0-10.946l-119.526-119.349 119.349-119.526z" />
<glyph unicode="&#xe91d;" glyph-name="fire-fill" d="M512 10.667c-196.267 2.133-357.547 154.453-372.053 349.867 0 109.227 42.24 184.32 131.413 273.493 76.373 76.373 158.72 174.933 157.867 251.733 89.173-14.933 206.507-123.733 206.507-289.28 41.387 11.947 70.827 49.067 72.96 92.16 105.813-76.373 170.24-197.547 174.933-328.107-10.24-197.12-174.080-351.573-371.627-349.867v0zM512 280.32c45.653 0 82.773 37.12 82.773 82.773 0 30.293-27.733 73.813-82.773 129.707-55.040-56.32-82.773-99.413-82.773-129.707 0.427-45.653 37.12-82.773 82.773-82.773z" />
<glyph unicode="&#xe91e;" glyph-name="fire" d="M898.56 358.827c-5.12 143.36-74.667 273.92-190.72 357.973l-57.6 41.387-3.413-70.827c-0.427-6.4-1.707-12.8-3.84-18.773-28.587 138.24-133.12 235.52-230.827 251.733l-45.227 7.68 0.427-45.653c0.427-29.013-18.347-96.427-146.773-224.427-85.333-85.333-142.507-169.387-142.507-303.36 15.36-213.76 195.413-383.147 409.6-385.707l111.36-1.28-14.933 11.947c173.227 40.96 304.64 191.147 314.453 379.307zM491.52 46.080c-0.853 0-1.707 0-2.56 0h-8.96c-170.667 6.827-312.32 142.933-324.267 311.040 0 92.16 32.427 158.72 119.893 246.187 89.6 89.6 142.933 165.12 161.707 228.693 66.133-32 137.387-117.76 137.387-238.933v-51.2l49.067 14.080c34.987 10.24 64 33.28 81.493 63.147 71.68-68.693 113.92-161.707 117.333-260.267-10.24-175.36-154.88-312.747-331.093-312.747zM488.533 544.853l-27.307-27.733c-64-65.28-93.44-114.773-93.44-156.587 0-66.56 54.187-121.173 121.173-121.173 66.56 0 121.173 54.187 121.173 121.173 0 41.813-29.867 91.733-93.44 156.587l-28.16 27.733zM488.533 315.733c-24.32 0-44.373 19.627-44.373 44.373 0 4.267 2.56 25.173 44.373 73.387 41.813-48.213 44.373-69.12 44.373-73.387 0-24.32-20.053-44.373-44.373-44.373z" />
<glyph unicode="&#xe91f;" glyph-name="hamburger" d="M0.546 448.001c0-4.28 0-8.56 0-17.12 0-17.12 8.56-29.96 21.4-38.519 8.56-4.28 21.4-8.56 34.24-8.56 0 0 4.28 0 8.56 0h894.51c4.28 0 8.56 0 17.12 0 29.96 4.28 51.359 34.24 47.080 64.199v4.28c0 4.28 0 8.56 0 17.12-4.28 29.96-34.24 55.639-64.199 51.359h-911.63c-29.96-8.56-51.359-38.519-47.080-72.759v0zM1023.455 169.804v4.28c0 4.28 0 8.56 0 17.12-4.28 29.96-34.24 51.359-64.199 47.080h-894.51c-4.28 0-8.56 0-17.12 0-29.96-4.28-51.359-34.24-47.080-64.199v-4.28c0-4.28 0-8.56 0-17.12 4.28-29.96 29.96-51.359 55.639-51.359 4.28 0 4.28 0 8.56 0h907.35c34.24 8.56 55.639 38.519 51.359 68.479zM0.546 726.198c0-4.28 0-8.56 0-17.12 4.28-17.12 8.56-29.96 21.4-38.519s25.679-12.84 42.799-12.84h890.231c4.28 0 4.28 0 8.56 0s4.28 0 8.56 0c17.12 0 29.96 8.56 38.519 21.4s12.84 25.679 12.84 42.799v4.28c0 4.28 0 8.56 0 17.12-4.28 17.12-8.56 29.96-21.4 38.519-12.84 12.84-29.96 12.84-42.799 12.84h-894.51c-4.28 0-8.56 0-12.84 0-34.24-4.28-55.639-34.24-51.359-64.199v-4.28z" />
<glyph unicode="&#xe920;" glyph-name="list" d="M749.653 919.040h-500.053c-94.293 0-170.667-76.373-170.667-170.667v-601.173c0-94.293 76.373-170.667 170.667-170.667h500.053c94.293 0 170.667 76.373 170.667 170.667v601.173c0 94.293-76.8 170.667-170.667 170.667zM843.52 147.627c0-51.627-42.24-93.867-93.867-93.867h-500.053c-51.627 0-93.867 42.24-93.867 93.867v600.747c0 51.627 42.24 93.867 93.867 93.867h500.053c51.627 0 93.867-42.24 93.867-93.867v-600.747zM702.293 705.28h-426.667c-21.333 0-38.4-17.067-38.4-38.4s17.067-38.4 38.4-38.4h426.667c21.333 0 38.4 17.067 38.4 38.4s-17.067 38.4-38.4 38.4zM702.293 503.040h-426.667c-21.333 0-38.4-17.067-38.4-38.4s17.067-38.4 38.4-38.4h426.667c21.333 0 38.4 17.067 38.4 38.4s-17.067 38.4-38.4 38.4zM622.507 301.227h-346.88c-21.333 0-38.4-17.067-38.4-38.4s17.067-38.4 38.4-38.4h346.88c21.333 0 38.4 17.067 38.4 38.4s-17.493 38.4-38.4 38.4z" />
<glyph unicode="&#xe921;" glyph-name="list-fill" d="M763.307 920.747h-502.613c-94.293 0-170.667-76.373-170.667-170.667v-603.733c0-94.293 76.373-170.667 170.667-170.667h502.613c94.293 0 170.667 76.373 170.667 170.667v603.733c0 94.293-76.373 170.667-170.667 170.667zM645.547 230.4h-347.733c-17.493 0-32 14.507-32 32s14.507 32 32 32h347.733c17.493 0 32-14.507 32-32s-14.080-32-32-32zM726.187 433.067h-428.373c-17.493 0-32 14.507-32 32s14.507 32 32 32h427.947c17.493 0 32-14.507 32-32s-14.080-32-31.573-32zM726.187 635.307h-428.373c-17.493 0-32 14.507-32 32s14.507 32 32 32h427.947c17.493 0 32-14.507 32-32s-14.080-32-31.573-32z" />
<glyph unicode="&#xe922;" glyph-name="home" d="M1006.933 533.333l-460.8 409.6c-21.333 17.067-46.933 17.067-68.267 0l-460.8-409.6c-21.333-17.067-21.333-51.2-4.267-72.533s51.2-21.333 72.533-4.267l17.067 17.067v-388.267c0-55.467 46.933-102.4 102.4-102.4h614.4c55.467 0 102.4 46.933 102.4 102.4v388.267l17.067-17.067c21.333-17.067 55.467-17.067 72.533 4.267 21.333 21.333 17.067 51.2-4.267 72.533zM563.2 85.333h-102.4v204.8h102.4v-204.8zM819.2 85.333h-153.6v256c0 29.867-21.333 51.2-51.2 51.2h-204.8c-29.867 0-51.2-21.333-51.2-51.2v-256h-153.6v477.867l307.2 273.067 307.2-273.067v-477.867z" />
<glyph unicode="&#xe923;" glyph-name="blog" d="M228.181 917.376h556.501c102.457 0 185.515-83.058 185.515-185.515v0-556.501c0-102.457-83.058-185.515-185.515-185.515v0h-556.501c-102.457 0-185.515 83.058-185.515 185.515v0 556.501c0 102.457 83.058 185.515 185.515 185.515v0zM228.181 824.619c-51.228 0-92.757-41.529-92.757-92.757v0-556.501c0-51.228 41.529-92.757 92.757-92.757v0h556.501c51.228 0 92.757 41.529 92.757 92.757v0 556.501c0 51.228-41.529 92.757-92.757 92.757v0zM320.939 592.725c-25.614 0-46.379 20.764-46.379 46.379s20.764 46.379 46.379 46.379v0h231.893c25.614 0 46.379-20.764 46.379-46.379s-20.764-46.379-46.379-46.379v0zM320.939 221.525c-25.614 0-46.379 20.764-46.379 46.379s20.764 46.379 46.379 46.379v0h139.136c25.614 0 46.379-20.764 46.379-46.379s-20.764-46.379-46.379-46.379v0zM320.939 407.040c-25.614 0-46.379 20.764-46.379 46.379s20.764 46.379 46.379 46.379v0h371.2c25.614 0 46.379-20.764 46.379-46.379s-20.764-46.379-46.379-46.379v0z" />
<glyph unicode="&#xe924;" glyph-name="faq" d="M802.133 849.067h-362.667c-68.267 0-119.467-55.467-123.733-123.733v-29.867h-128c-64 0-119.467-55.467-119.467-119.467v-307.2c0-68.267 55.467-119.467 123.733-123.733h98.133l-8.533-42.667c-4.267-25.6 12.8-46.933 34.133-55.467 4.267 0 8.533 0 8.533 0 8.533 0 17.067 4.267 21.333 8.533l162.133 89.6h179.2c68.267 0 119.467 55.467 123.733 123.733v128c64 4.267 115.2 55.467 115.2 123.733v204.8c0 68.267-55.467 123.733-123.733 123.733zM716.8 268.8c0-8.533-4.267-17.067-8.533-21.333s-12.8-8.533-21.333-8.533h-192c-8.533 0-17.067-4.267-21.333-4.267l-85.333-46.933c4.267 25.6-12.8 46.933-38.4 51.2h-157.867c-17.067 0-29.867 12.8-29.867 29.867v307.2c0 8.533 4.267 17.067 8.533 21.333s12.8 8.533 21.333 8.533h494.933c8.533 0 17.067-4.267 21.333-8.533s8.533-12.8 8.533-21.333v-307.2zM832 516.267c0-12.8-8.533-25.6-21.333-29.867v89.6c0 68.267-55.467 119.467-123.733 123.733h-277.333v25.6c0 17.067 12.8 29.867 29.867 29.867h362.667c8.533 0 17.067-4.267 21.333-8.533s8.533-12.8 8.533-21.333v-209.067zM422.4 311.467c-17.067 0-29.867-12.8-29.867-29.867 0 0 0 0 0 0v0c0-17.067 12.8-29.867 29.867-29.867s29.867 12.8 29.867 29.867-12.8 29.867-29.867 29.867zM477.867 580.267c-12.8 4.267-25.6 4.267-38.4 4.267-29.867 0-64-8.533-85.333-29.867-17.067-17.067-25.6-42.667-25.6-64 0-17.067 12.8-29.867 29.867-29.867s29.867 12.8 29.867 29.867c0 0 0 0 0 0 0 8.533 4.267 17.067 8.533 21.333 12.8 8.533 29.867 12.8 42.667 12.8s25.6-4.267 38.4-12.8c4.267-8.533 8.533-21.333 4.267-29.867-4.267-12.8-12.8-17.067-29.867-29.867-34.133-17.067-55.467-51.2-55.467-89.6 0-17.067 12.8-29.867 29.867-29.867s29.867 12.8 29.867 29.867c0 0 0 0 0 0 0 17.067 8.533 25.6 29.867 38.4 25.6 12.8 46.933 34.133 55.467 64 12.8 51.2-17.067 98.133-64 115.2z" />
<glyph unicode="&#xe925;" glyph-name="raf" d="M725.333 448c59.733 38.4 102.4 106.667 102.4 183.467 0 119.467-98.133 213.333-213.333 213.333-119.467 0-213.333-98.133-213.333-213.333 0-76.8 38.4-145.067 98.133-183.467-145.067-46.933-247.467-183.467-247.467-341.333v-8.533c0-21.333 17.067-34.133 34.133-34.133s34.133 12.8 38.4 29.867v0 12.8c0 153.6 123.733 277.333 277.333 281.6h4.267c153.6 0 281.6-128 281.6-281.6v-8.533c4.267-17.067 21.333-29.867 38.4-29.867s34.133 12.8 38.4 29.867v0 8.533c4.267 157.867-98.133 294.4-238.933 341.333zM610.133 494.933c-72.533 0-136.533 59.733-136.533 136.533s59.733 136.533 136.533 136.533 136.533-59.733 136.533-136.533-64-136.533-136.533-136.533zM371.2 443.733v0c17.067 4.267 25.6 21.333 25.6 38.4s-12.8 34.133-25.6 38.4v4.267h-12.8c-38.4 0-72.533 34.133-72.533 72.533 0 42.667 29.867 76.8 72.533 81.067 12.8 0 21.333 4.267 29.867 12.8 4.267 4.267 8.533 12.8 8.533 25.6 0 21.333-17.067 38.4-38.4 38.4h-4.267c-85.333 0-153.6-72.533-153.6-157.867 0-42.667 17.067-81.067 46.933-106.667-102.4-55.467-170.667-157.867-170.667-281.6 0-21.333 17.067-38.4 38.4-38.4s38.4 17.067 38.4 42.667c0 119.467 89.6 217.6 204.8 234.667l12.8-4.267z" />
<glyph unicode="&#xe926;" glyph-name="search" d="M866.133 42.667c-12.8 0-25.6 4.267-34.133 12.8l-174.933 179.2c-21.333 21.333-17.067 51.2 0 72.533 21.333 21.333 51.2 21.333 72.533 0l174.933-174.933c21.333-21.333 21.333-51.2 0-72.533-12.8-12.8-25.6-17.067-38.4-17.067zM426.667 192c-187.733 0-341.333 153.6-341.333 341.333s153.6 341.333 341.333 341.333 341.333-153.6 341.333-341.333v0c0-187.733-153.6-341.333-341.333-341.333zM426.667 789.333c-140.8 0-256-115.2-256-256s115.2-256 256-256c140.8 0 256 115.2 256 256s-115.2 256-256 256z" />
<glyph unicode="&#xe927;" glyph-name="recent" d="M512 878.933c-238.933 0-430.933-192-430.933-430.933s192-435.2 430.933-435.2 435.2 196.267 435.2 435.2c-4.267 238.933-196.267 430.933-435.2 430.933zM512 89.6c-196.267 0-358.4 162.133-358.4 358.4s162.133 358.4 358.4 358.4c196.267 0 358.4-162.133 358.4-358.4s-162.133-358.4-358.4-358.4zM665.6 456.533h-145.067v204.8c0 21.333-17.067 38.4-38.4 38.4s-38.4-17.067-38.4-38.4v-243.2c0-8.533 4.267-17.067 12.8-25.6s17.067-12.8 25.6-12.8h183.467c21.333 0 38.4 17.067 38.4 38.4-4.267 21.333-21.333 38.4-38.4 38.4z" />
<glyph unicode="&#xe928;" glyph-name="all" d="M645.419 8.704c-60.155 0.361-108.823 49.029-109.184 109.149v193.656c0.193 60.223 48.961 108.991 109.165 109.184h194.11c33.082-0.044 62.861-14.15 83.686-36.661l0.069-0.075c16.146-17.174 26.066-40.362 26.066-65.868 0-2.451-0.092-4.88-0.272-7.285l0.019 0.321v-193.408c-0.266-60.224-49.039-108.967-109.249-109.184h-0.021zM656.853 342.016c-21.005-1.856-37.362-19.34-37.419-40.656v-178.566c1.229-19.644 17.462-35.11 37.307-35.11 0.594 0 1.186 0.014 1.773 0.041l-0.083-0.003h175.915c0.018 0 0.040 0 0.061 0 19.601 0 35.566 15.568 36.204 35.013l0.002 0.059v178.731c-0.941 22.171-18.665 39.91-40.743 40.872l-0.089 0.003zM183.765 8.661c-60.184 0.289-108.895 49-109.184 109.156v193.649c0.145 60.242 48.942 109.039 109.17 109.184h193.849c0.028 0 0.061 0 0.095 0 33.193 0 63.091-14.112 84.020-36.663l0.067-0.073c15.713-17.004 25.35-39.825 25.35-64.897 0-2.868-0.126-5.707-0.373-8.512l0.026 0.363v-193.195c-0.361-60.155-49.029-108.823-109.149-109.184h-0.035zM194.944 341.973c-20.867-2.041-37.056-19.444-37.163-40.65v-178.571c1.16-19.633 17.365-35.116 37.187-35.116 0.637 0 1.27 0.016 1.899 0.048l-0.088-0.004h175.829c0.080-0.001 0.175-0.001 0.27-0.001 19.576 0 35.512 15.583 36.080 35.021l0.001 0.052v178.731c-0.941 22.171-18.665 39.91-40.743 40.872l-0.089 0.003zM645.461 473.003c-60.155 0.361-108.823 49.029-109.184 109.149v193.87c0.193 60.223 48.961 108.991 109.165 109.184h194.11c33.082-0.044 62.861-14.15 83.686-36.661l0.069-0.075c16.146-17.174 26.066-40.362 26.066-65.868 0-2.451-0.092-4.88-0.272-7.285l0.019 0.321v-193.408c-0.266-60.224-49.039-108.967-109.249-109.184h-0.021zM656.896 806.315c-21.030-1.796-37.419-19.309-37.419-40.65 0-0.004 0-0.008 0-0.012v0.001-178.347c1.27-19.537 17.428-34.903 37.174-34.903 0.641 0 1.279 0.016 1.912 0.048l-0.089-0.004h175.915c0.059 0 0.13-0.001 0.2-0.001 19.425 0 35.267 15.344 36.064 34.574l0.002 0.072v178.944c-0.941 22.171-18.665 39.91-40.743 40.872l-0.089 0.003zM183.808 472.96c-60.184 0.289-108.895 49-109.184 109.156v193.863c0.145 60.242 48.942 109.039 109.17 109.184h193.849c33.214-0.049 63.125-14.147 84.118-36.667l0.063-0.069c15.706-16.978 25.339-39.773 25.339-64.818 0-2.821-0.122-5.613-0.362-8.372l0.025 0.358v-193.408c-0.361-60.155-49.029-108.823-109.149-109.184h-0.035zM195.157 806.272c-20.969-1.899-37.28-19.367-37.333-40.656v-178.352c1.27-19.537 17.428-34.903 37.174-34.903 0.641 0 1.279 0.016 1.912 0.048l-0.089-0.004h175.829c0.060 0 0.132-0.001 0.203-0.001 19.442 0 35.303 15.335 36.146 34.57l0.003 0.076v178.944c-0.941 22.171-18.665 39.91-40.743 40.872l-0.089 0.003z" />
<glyph unicode="&#xe929;" glyph-name="filter" d="M821.568 132.096c-15.793-43.667-56.894-74.311-105.152-74.311s-89.36 30.644-104.906 73.534l-0.246 0.776h-452.352c-20.536 0-37.184 16.648-37.184 37.184s16.648 37.184 37.184 37.184v0h452.352c15.793 43.667 56.894 74.311 105.152 74.311s89.36-30.644 104.906-73.534l0.246-0.776h43.52c20.536 0 37.184-16.648 37.184-37.184s-16.648-37.184-37.184-37.184v0zM679.232 169.28c0-20.536 16.648-37.184 37.184-37.184s37.184 16.648 37.184 37.184c0 20.536-16.648 37.184-37.184 37.184v0c0 0 0 0 0 0-20.536 0-37.184-16.648-37.184-37.184 0-0.022 0-0.045 0-0.067v0.003zM617.152 689.664c-15.793-43.667-56.894-74.311-105.152-74.311s-89.36 30.644-104.906 73.534l-0.246 0.776h-247.936c-20.536 0-37.184 16.648-37.184 37.184s16.648 37.184 37.184 37.184v0h247.936c15.767 43.715 56.892 74.401 105.184 74.401s89.417-30.687 104.939-73.624l0.245-0.777h247.872c20.536 0 37.184-16.648 37.184-37.184s-16.648-37.184-37.184-37.184v0zM474.816 726.848c0-20.536 16.648-37.184 37.184-37.184s37.184 16.648 37.184 37.184c0 20.536-16.648 37.184-37.184 37.184v0c0 0 0 0 0 0-20.536 0-37.184-16.648-37.184-37.184 0-0.022 0-0.045 0-0.067v0.003zM865.216 410.88h-452.48c-15.767-43.715-56.892-74.401-105.184-74.401s-89.417 30.687-104.939 73.624l-0.245 0.777h-43.456c-20.536 0-37.184 16.648-37.184 37.184s16.648 37.184 37.184 37.184v0h43.52c15.793 43.667 56.894 74.311 105.152 74.311s89.36-30.644 104.906-73.534l0.246-0.776h452.352c20.536 0 37.184-16.648 37.184-37.184s-16.648-37.184-37.184-37.184v0zM270.528 448.064c0-20.536 16.648-37.184 37.184-37.184s37.184 16.648 37.184 37.184c0 20.536-16.648 37.184-37.184 37.184v0c-0.038 0-0.083 0-0.128 0-20.536 0-37.184-16.648-37.184-37.184 0-0.023 0-0.045 0-0.068v0.004z" />
<glyph unicode="&#xe92a;" glyph-name="aff" d="M770.56 625.721h-84.821v59.335c-0.097 68.705-55.767 124.376-124.464 124.473h-288.094c-68.73-0.065-124.433-55.747-124.53-124.463v-288.037c0.097-68.725 55.8-124.408 124.523-124.473h84.828v-59.335c0.097-68.725 55.8-124.408 124.523-124.473h288.092c68.73 0.065 124.433 55.747 124.53 124.463v287.981c-0.065 68.75-55.78 124.465-124.524 124.53h-0.006zM838.372 213.22c-0.193-37.436-30.489-67.733-67.907-67.925h-287.99c-37.436 0.193-67.733 30.489-67.925 67.907v59.41h146.716c68.73 0.065 124.433 55.747 124.53 124.463v82.498c0.109 0.934 0.171 2.015 0.171 3.111 0 15.709-12.735 28.444-28.444 28.444s-28.444-12.735-28.444-28.444c0-1.096 0.062-2.178 0.183-3.242l-0.012 0.13v-82.546c-0.193-37.456-30.521-67.765-67.967-67.925h-288.1c-37.461 0.161-67.789 30.469-67.982 67.907v288.046c0.193 37.456 30.521 67.765 67.967 67.925h288.1c37.436-0.193 67.733-30.489 67.925-67.907v-59.353h-146.716c-68.725-0.097-124.408-55.8-124.473-124.523v-81.186c1.621-14.313 13.66-25.333 28.274-25.333s26.653 11.020 28.262 25.203l0.012 0.13v81.18c0.193 37.436 30.489 67.733 67.907 67.925h288.103c37.388-0.257 67.619-30.529 67.811-67.907v-288.046z" />
<glyph unicode="&#xe92b;" glyph-name="affilaite" d="M646.955 349.184v-43.179c0-23.847-19.332-43.179-43.179-43.179v0h-172.629c-23.847 0-43.179 19.332-43.179 43.179v0 43.179h-215.851v-237.696c0.144-11.813 9.754-21.334 21.588-21.334 0.046 0 0.091 0 0.137 0h647.204c0.051 0 0.111-0.001 0.172-0.001 11.825 0 21.425 9.526 21.546 21.323v237.707zM646.955 435.499h237.227c0.025 0 0.056 0 0.086 0 11.949 0 21.644 9.65 21.717 21.583v215.602c0 0.051 0.001 0.111 0.001 0.171 0 11.947-9.685 21.632-21.632 21.632-0.030 0-0.060 0-0.091 0h-733.478c0 0 0 0 0 0-11.994 0-21.717-9.723-21.717-21.717 0-0.030 0-0.060 0-0.090v0.005-215.595c0-0.051-0.001-0.111-0.001-0.171 0-11.947 9.685-21.632 21.632-21.632 0.030 0 0.060 0 0.091 0h237.222v43.349c0 23.847 19.332 43.179 43.179 43.179v0h172.629c23.847 0 43.179-19.332 43.179-43.179v0zM258.688 780.8v64.555c0 0.013 0 0.028 0 0.043 0 59.549 48.237 107.831 107.769 107.904h302.386c59.528-0.024 107.776-48.287 107.776-107.819 0-0.045 0-0.090 0-0.135v0.007-64.683h107.605c0.038 0 0.083 0 0.128 0 59.617 0 107.947-48.329 107.947-107.947 0-0.060 0-0.12 0-0.18v0.009-215.467c0-0.038 0-0.083 0-0.128 0-35.194-16.843-66.455-42.907-86.161l-0.271-0.197v-259.115c-0.073-59.515-48.336-107.734-107.861-107.734-0.075 0-0.15 0-0.225 0h-647.113c-0.051 0-0.111 0-0.171 0-59.534 0-107.807 48.213-107.904 107.724v259.294c-26.335 19.886-43.179 51.133-43.179 86.315v0 215.595c0 0.025 0 0.055 0 0.085 0 59.664 48.368 108.032 108.032 108.032 0.030 0 0.060 0 0.090 0h-0.005zM690.133 845.355c0.001 0.089 0.002 0.194 0.002 0.299 0 11.782-9.551 21.333-21.333 21.333-0.001 0-0.001 0-0.002 0h-302.507c-11.813-0.145-21.333-9.754-21.333-21.588 0-0.016 0-0.031 0-0.047v0.002-64.683h345.301zM474.325 349.184h86.315v86.315h-86.315z" />
<glyph unicode="&#xe92c;" glyph-name="lightning" d="M382.703 23.381l57.617 259.413c0.602 2.037 0.948 4.378 0.948 6.799 0 13.724-11.125 24.849-24.849 24.849-0.502 0-1-0.015-1.494-0.044l0.068 0.003h-161.587l387.959 484.693-57.617-259.413c-0.59-2.017-0.929-4.334-0.929-6.73 0-13.724 11.125-24.849 24.849-24.849 0.495 0 0.986 0.014 1.474 0.043l-0.067-0.003h161.655z" />
<glyph unicode="&#xe92d;" glyph-name="web" d="M876.544 585.216c0 0 0 0 0 0-2.048 0-2.048 0 0 0-59.392 151.552-204.8 251.904-364.544 251.904-161.792 0-307.2-100.352-362.496-251.904 0 0 0 0 0 0s-2.048 0-2.048-2.048c-16.384-43.008-24.576-88.064-24.576-135.168s8.192-92.16 22.528-137.216c0 0 0 0 0 0s2.048 0 2.048-2.048c57.344-149.504 202.752-249.856 364.544-249.856s305.152 100.352 364.544 251.904c0 0 0 0 0 0s2.048 0 2.048 2.048c30.72 86.016 30.72 184.32-2.048 272.384zM512 765.44c38.912 0 81.92-61.44 106.496-159.744h-212.992c24.576 98.304 67.584 159.744 106.496 159.744zM378.88 736.768c-20.48-40.96-36.864-83.968-45.056-129.024h-96.256c30.72 55.296 81.92 100.352 141.312 129.024zM192.512 448c0 30.72 4.096 59.392 12.288 88.064h116.736c-4.096-28.672-6.144-59.392-6.144-88.064s2.048-59.392 6.144-88.064h-116.736c-6.144 28.672-10.24 57.344-12.288 88.064zM235.52 288.256h96.256c8.192-45.056 24.576-88.064 45.056-129.024-57.344 26.624-108.544 71.68-141.312 129.024zM512 130.56c-38.912 0-81.92 61.44-106.496 159.744h210.944c-24.576-98.304-65.536-159.744-104.448-159.744zM628.736 359.936h-235.52c-4.096 28.672-6.144 59.392-6.144 88.064s2.048 59.392 6.144 88.064h235.52c4.096-28.672 6.144-59.392 6.144-88.064s-2.048-59.392-6.144-88.064zM786.432 607.744v0h-96.256c-8.192 45.056-24.576 88.064-45.056 129.024 57.344-26.624 108.544-73.728 141.312-129.024zM643.072 159.232c20.48 40.96 36.864 83.968 45.056 129.024h96.256c-30.72-55.296-81.92-100.352-141.312-129.024zM817.152 359.936h-116.736c4.096 28.672 6.144 59.392 6.144 88.064s-2.048 59.392-6.144 88.064h116.736c8.192-28.672 12.288-59.392 12.288-88.064-2.048-30.72-6.144-59.392-12.288-88.064z" />
<glyph unicode="&#xe92e;" glyph-name="prepaid" d="M128 608.010v-320.020c0.012-53.009 42.981-95.978 95.989-95.99h576.022c53.014 0 95.99 42.976 95.99 95.99v320.020c0 53.014-42.976 95.99-95.99 95.99v0h-576.020c-53.016-0.012-95.99-42.992-95.99-96.010v0zM800.010 352.010h-128c-17.673 0-32 14.327-32 32s14.327 32 32 32h128c17.673 0 32-14.327 32-32s-14.327-32-32-32v0zM800.010 480.010h-576.020c-17.327 0.452-31.201 14.606-31.201 32s13.874 31.548 31.159 31.999l0.042 0.001h576.020c17.327-0.452 31.201-14.606 31.201-32s-13.874-31.548-31.159-31.999l-0.042-0.001z" />
<glyph unicode="&#xe92f;" glyph-name="bank" d="M911.36 679.424l-395.264 204.8c-8.192 4.096-16.384 4.096-24.576 0l-395.264-204.8c-6.144-4.096-10.24-12.288-6.144-18.432l18.432-36.864c4.096-8.192 12.288-12.288 20.48-12.288h749.568c8.192 0 16.384 6.144 20.48 12.288l18.432 36.864c2.048 6.144 0 14.336-6.144 18.432zM200.704 556.544l-32.768-335.872h167.936l-32.768 335.872h-102.4zM452.608 556.544l-32.768-335.872h167.936l-32.768 335.872h-102.4zM704.512 556.544l-32.768-335.872h167.936l-32.768 335.872h-102.4zM847.872 163.328h-714.752c-65.536 0-65.536-112.64 0-112.64h714.752c65.536 2.048 63.488 112.64 0 112.64z" />
<glyph unicode="&#xe930;" glyph-name="calendar" d="M828.365 792.73h-98.253v41.421c0 22.48-18.224 40.704-40.704 40.704s-40.704-18.224-40.704-40.704v-41.421h-250.368v41.421c0 22.48-18.224 40.704-40.704 40.704s-40.704-18.224-40.704-40.704v0-41.421h-98.202c-97.209-0.087-175.989-78.867-176.077-176.068v-434.85c0.087-97.209 78.867-175.989 176.068-176.077h609.288c97.209 0.087 175.989 78.867 176.077 176.068v434.85c0 0.015 0 0.033 0 0.051 0 97.108-78.634 175.85-175.702 176.025h-0.017zM219.085 711.475h97.997v-22.784c0-22.48 18.224-40.704 40.704-40.704s40.704 18.224 40.704 40.704v22.784h250.573v-22.784c0-22.48 18.224-40.704 40.704-40.704s40.704 18.224 40.704 40.704v22.784h98.253c52.357-0.029 94.793-42.465 94.822-94.82v-11.933h-799.488v11.93c0.232 52.206 42.549 94.451 94.76 94.566h0.011zM828.365 86.835h-609.28c-52.357 0.029-94.793 42.465-94.822 94.82v341.763h799.027v-341.76c-0.058-52.412-42.516-94.889-94.916-94.976h-0.009zM342.733 473.754h-55.706c-14.919-0.029-27.005-12.115-27.034-27.031v-55.709c0.029-14.919 12.115-27.005 27.031-27.034h55.709c14.919 0.029 27.005 12.115 27.034 27.031v55.709c0 0.030 0 0.067 0 0.103 0 14.874-12.058 26.931-26.931 26.931-0.036 0-0.072 0-0.108 0h0.006zM552.192 473.754h-55.706c-14.919-0.029-27.005-12.115-27.034-27.031v-55.709c0.029-14.919 12.115-27.005 27.031-27.034h55.709c14.919 0.029 27.005 12.115 27.034 27.031v55.709c-0.029 14.919-12.115 27.005-27.031 27.034h-0.003zM761.651 473.754h-55.706c-14.919-0.029-27.005-12.115-27.034-27.031v-55.709c0.029-14.919 12.115-27.005 27.031-27.034h55.709c14.919 0.029 27.005 12.115 27.034 27.031v55.709c-0.029 14.901-12.086 26.976-26.977 27.034h-0.006zM341.197 287.232h-55.706c-14.919-0.029-27.005-12.115-27.034-27.031v-55.709c0.029-14.919 12.115-27.005 27.031-27.034h55.709c14.919 0.029 27.005 12.115 27.034 27.031v55.709c-0.029 14.901-12.086 26.976-26.977 27.034h-0.006zM550.656 287.232h-55.654c-14.919-0.029-27.005-12.115-27.034-27.031v-55.709c0.029-14.919 12.115-27.005 27.031-27.034h55.709c14.919 0.029 27.005 12.115 27.034 27.031v55.709c-0.029 14.919-12.115 27.005-27.031 27.034h-0.003zM760.115 287.232h-55.706c-14.919-0.029-27.005-12.115-27.034-27.031v-55.709c0.029-14.919 12.115-27.005 27.031-27.034h55.811c14.919 0.029 27.005 12.115 27.034 27.031v55.709c-0.029 14.919-12.115 27.005-27.031 27.034h-0.003z" />
<glyph unicode="&#xe931;" glyph-name="wallet" d="M831.531 656.427h-43.904v43.904c0 72.719-58.95 131.669-131.669 131.669h-438.912c-72.719 0-131.669-58.95-131.669-131.669v0-526.72c0-72.719 58.95-131.669 131.669-131.669h614.4c72.719 0 131.669 58.95 131.669 131.669v0 351.189c0 72.719-58.95 131.669-131.669 131.669v0zM217.131 744.235h438.827c24.248 0 43.904-19.656 43.904-43.904v0-43.904h-482.816c-24.248 0-43.904 19.656-43.904 43.904s19.656 43.904 43.904 43.904v0zM875.563 305.28h-43.904c-24.248 0-43.904 19.656-43.904 43.904s19.656 43.904 43.904 43.904h43.904zM875.563 480.853h-43.904c-72.731 0-131.691-58.96-131.691-131.691s58.96-131.691 131.691-131.691v0h43.904v-43.904c0-24.248-19.656-43.904-43.904-43.904v0h-614.613c-24.248 0-43.904 19.656-43.904 43.904v0 402.432c13.020-4.731 28.049-7.467 43.717-7.467 0.066 0 0.131 0 0.197 0h614.39c24.248 0 43.904-19.656 43.904-43.904v0z" />
<glyph unicode="&#xe932;" glyph-name="logout" d="M857.6 243.2c-4.267 0-4.267 4.267-8.533 4.267h-68.267c-8.533 0-12.8-4.267-17.067-8.533-4.267-8.533-12.8-17.067-21.333-21.333-128-128-337.067-128-469.333 0-59.733 59.733-93.867 140.8-93.867 230.4s34.133 170.667 98.133 234.667c59.733 64 145.067 98.133 230.4 98.133 0 0 0 0 0 0 89.6 0 170.667-34.133 234.667-98.133 8.533-8.533 12.8-17.067 21.333-21.333 4.267-4.267 12.8-8.533 17.067-8.533h68.267c8.533 0 17.067 8.533 17.067 17.067 0 4.267 0 4.267-4.267 8.533-123.733 196.267-388.267 251.733-580.267 128-93.867-64-157.867-157.867-183.467-268.8s-4.267-221.867 55.467-315.733c81.067-123.733 217.6-192 354.133-192 76.8 0 157.867 21.333 226.133 68.267 51.2 34.133 93.867 76.8 128 128 8.533 4.267 4.267 12.8-4.267 17.067zM942.933 456.533l-140.8 110.933c-4.267 4.267-8.533 4.267-12.8 4.267s-8.533-4.267-12.8-4.267c-4.267-4.267-4.267-8.533-4.267-8.533v-68.267h-294.4c-8.533 0-17.067-8.533-17.067-17.067v-55.467c0-8.533 8.533-17.067 17.067-17.067h294.4v-64c0-4.267 0-8.533 4.267-12.8s8.533-4.267 12.8-4.267c0 0 0 0 0 0 4.267 0 8.533 0 8.533 4.267l136.533 106.667c4.267 4.267 4.267 8.533 4.267 12.8 8.533 8.533 8.533 12.8 4.267 12.8z" />
<glyph unicode="&#xe933;" glyph-name="refresh" d="M817.749 330.411l-136.533-24.448c-11.827-2.194-20.663-12.43-20.663-24.73 0-6.203 2.248-11.882 5.973-16.265l-0.030 0.036 25.856-30.507c-48.361-40.893-111.425-65.752-180.295-65.752-85.466 0-161.99 38.283-213.361 98.636l-0.329 0.396c-37.413 43.917-61.43 100.267-65.158 162.089l-0.037 0.769h-0.341c0.048 0.689 0.076 1.493 0.076 2.304s-0.028 1.615-0.082 2.412l0.006-0.108c-2.341 15.066-15.221 26.462-30.763 26.462-17.183 0-31.112-13.929-31.112-31.112 0-1.641 0.127-3.253 0.372-4.826l-0.022 0.175c0.012-0.141 0.019-0.304 0.019-0.469s-0.007-0.329-0.021-0.49l0.001 0.021c4.982-75.859 34.213-144.065 79.93-197.815l-0.399 0.481c63.191-74.251 156.723-121.042 261.185-121.042 84.209 0 161.315 30.406 220.94 80.838l-0.504-0.415 23.552-27.819c4.648-5.479 11.537-8.933 19.234-8.933 10.848 0 20.093 6.861 23.632 16.481l0.056 0.175 46.933 130.219c0.956 2.549 1.51 5.496 1.51 8.571 0 13.856-11.232 25.088-25.088 25.088-1.62 0-3.204-0.154-4.739-0.447l0.157 0.025zM205.099 566.869l136.533 24.448c11.845 2.179 20.7 12.424 20.7 24.737 0 6.2-2.245 11.876-5.968 16.259l0.030-0.036-38.4 45.312 13.696-16.213c48.384 40.985 111.511 65.903 180.459 65.903 85.451 0 161.962-38.275 213.325-98.616l0.329-0.396c37.943-44.581 62.078-101.952 65.211-164.852l0.026-0.652h0.341c0-0.939 0-1.963 0-2.859 0.798-16.446 14.327-29.479 30.899-29.479 17.084 0 30.933 13.849 30.933 30.933 0 1.171-0.065 2.327-0.192 3.464l0.013-0.14v0.896c0.033 0.542 0.051 1.175 0.051 1.813s-0.019 1.271-0.055 1.9l0.004-0.087-0.256 0.768c-4.723 76.234-33.998 144.839-79.929 198.838l0.399-0.481c-63.175 74.241-156.69 121.027-261.133 121.027-84.237 0-161.365-30.434-220.99-80.907l0.501 0.414-24.747 29.184c-4.647 5.472-11.533 8.92-19.223 8.92-10.859 0-20.112-6.876-23.643-16.511l-0.056-0.175-46.933-130.176c-0.942-2.534-1.487-5.461-1.487-8.516 0-13.879 11.251-25.131 25.131-25.131 1.597 0 3.158 0.149 4.672 0.433l-0.156-0.024z" />
<glyph unicode="&#xe934;" glyph-name="download" d="M127.872 667.733c0.121 69.474 56.396 125.764 125.853 125.909h60.899c19.125-0.097 34.597-15.599 34.645-34.726v-0.005c-0.048-19.106-15.536-34.578-34.643-34.603h-60.887c-31.174-0.121-56.413-25.36-56.533-56.522v-535.18c0.073-31.193 25.34-56.461 56.526-56.533h535.218c31.213 0.024 56.509 25.321 56.533 56.531v535.17c-0.073 31.193-25.34 56.461-56.526 56.533h-60.892c-19.101 0.024-34.578 15.502-34.603 34.6v0.002c0.024 19.127 15.486 34.634 34.593 34.731h60.894c69.49-0.097 125.794-56.416 125.867-125.902v-535.175c-0.024-69.513-56.357-125.861-125.862-125.909h-535.216c-69.49 0.097-125.794 56.416-125.867 125.902v0.007zM338.645 518.997c6.275 6.34 14.977 10.265 24.597 10.265 9.493 0 18.092-3.822 24.344-10.012l115.197-113.875c4.731-4.721 11.262-7.641 18.475-7.641s13.744 2.92 18.475 7.642v0l113.621 113.621c6.195 6.36 14.837 10.31 24.402 10.325h0.003c0.006 0 0.014 0 0.021 0 9.581 0 18.251-3.898 24.511-10.196l0.002-0.002c6.273-6.244 10.155-14.886 10.155-24.435 0-0.035 0-0.069 0-0.104v0.005c0-0.005 0-0.012 0-0.018 0-9.587-3.88-18.269-10.155-24.559l0.001 0.001-113.493-113.621c-17.308-17.218-41.171-27.862-67.52-27.862s-50.212 10.644-67.524 27.866l0.004-0.004-115.2 113.621c-6.373 6.208-10.326 14.872-10.326 24.46 0 0.086 0 0.171 0.001 0.257v-0.013c0.107 9.527 4.072 18.108 10.403 24.27l0.008 0.007zM486.741 839.595c0 0.013 0 0.028 0 0.043 0 19.143 15.506 34.664 34.643 34.688h0.002c19.163-0.024 34.688-15.564 34.688-34.731 0 0 0 0 0 0v-323.755c0-19.166-15.525-34.706-34.686-34.731h-0.002c-19.139 0.024-34.645 15.545-34.645 34.688 0 0.015 0 0.030 0 0.045v-0.002z" />
<glyph unicode="&#xe935;" glyph-name="email" d="M780.352 165.12h-502.912c-0.509-0.010-1.11-0.016-1.712-0.016-51.146 0-92.608 41.462-92.608 92.608 0 0.602 0.006 1.202 0.017 1.802l-0.001-0.090v377.152c-0.010 0.509-0.016 1.11-0.016 1.712 0 51.146 41.462 92.608 92.608 92.608 0.602 0 1.202-0.006 1.802-0.017l-0.090 0.001h502.912c0.509 0.010 1.11 0.016 1.712 0.016 51.146 0 92.608-41.462 92.608-92.608 0-0.602-0.006-1.202-0.017-1.802l0.001 0.090v-377.184c0.010-0.5 0.015-1.089 0.015-1.68 0-51.146-41.462-92.608-92.608-92.608-0.602 0-1.202 0.006-1.801 0.017l0.090-0.001zM277.44 668.032c-0.533 0.034-1.155 0.053-1.781 0.053-16.401 0-29.696-13.295-29.696-29.696 0-0.627 0.019-1.249 0.058-1.866l-0.004 0.085v-377.184c-0.034-0.533-0.053-1.155-0.053-1.781 0-16.401 13.295-29.696 29.696-29.696 0.627 0 1.249 0.019 1.866 0.058l-0.085-0.004h502.912c0.533-0.034 1.155-0.053 1.781-0.053 16.401 0 29.696 13.295 29.696 29.696 0 0.627-0.019 1.249-0.058 1.866l0.004-0.085v377.152c0.034 0.533 0.053 1.155 0.053 1.781 0 16.401-13.295 29.696-29.696 29.696-0.627 0-1.249-0.019-1.866-0.058l0.085 0.004zM528.928 385.152c-7.059 0.751-13.458 3.034-19.038 6.51l0.19-0.11-314.304 220.032c-6.285 5.765-10.211 14.016-10.211 23.183 0 17.355 14.069 31.424 31.424 31.424 6.048 0 11.697-1.709 16.49-4.669l-0.135 0.078 295.456-207.456 295.584 207.456c5.189 3.926 11.751 6.288 18.864 6.288 17.364 0 31.44-14.076 31.44-31.44 0-10.25-4.905-19.355-12.497-25.095l-0.079-0.057-314.304-220.032c-5.415-3.273-11.834-5.461-18.703-6.099l-0.177-0.013z" />
<glyph unicode="&#xe936;" glyph-name="plus" d="M454.272 503.488h-192c-29.824-1.045-53.604-25.473-53.604-55.456s23.78-54.411 53.509-55.453l0.095-0.003h192v-192c-0.020-0.562-0.032-1.222-0.032-1.884 0-30.645 24.843-55.488 55.488-55.488s55.488 24.843 55.488 55.488c0 0.663-0.012 1.322-0.035 1.979l0.003-0.095v192h192c29.824 1.045 53.604 25.473 53.604 55.456s-23.78 54.411-53.509 55.453l-0.095 0.003h-192v192c0.020 0.562 0.032 1.222 0.032 1.884 0 30.645-24.843 55.488-55.488 55.488s-55.488-24.843-55.488-55.488c0-0.663 0.012-1.322 0.035-1.979l-0.003 0.095zM511.872 959.936c282.77 0 512-229.23 512-512s-229.23-512-512-512c-282.77 0-512 229.23-512 512v0c0 0.019 0 0.041 0 0.064 0 282.77 229.23 512 512 512 0.045 0 0.090 0 0.135 0h-0.007z" />
<glyph unicode="&#xe937;" glyph-name="info-circle" d="M512 150.4c164.36 0 297.6 133.24 297.6 297.6s-133.24 297.6-297.6 297.6c-164.36 0-297.6-133.24-297.6-297.6v0c0-164.36 133.24-297.6 297.6-297.6v0zM512 64c-212.077 0-384 171.923-384 384s171.923 384 384 384c212.077 0 384-171.923 384-384v0c0-212.077-171.923-384-384-384v0zM469.76 454.72c0 23.859 19.341 43.2 43.2 43.2s43.2-19.341 43.2-43.2v-144c0-23.859-19.341-43.2-43.2-43.2s-43.2 19.341-43.2 43.2v0zM469.76 581.44c0 23.859 19.341 43.2 43.2 43.2s43.2-19.341 43.2-43.2v-0.96c0-23.859-19.341-43.2-43.2-43.2s-43.2 19.341-43.2 43.2v0z" />
<glyph unicode="&#xe938;" glyph-name="copy" d="M734.72 746.688h-608c-0.389 0.009-0.848 0.014-1.308 0.014-33.355 0-60.515-26.525-61.538-59.632l-0.002-0.094v-627.2c1.025-33.201 28.185-59.726 61.54-59.726 0.46 0 0.918 0.005 1.376 0.015l-0.068-0.001h608c0.389-0.009 0.848-0.014 1.308-0.014 33.355 0 60.515 26.525 61.538 59.632l0.002 0.094v627.2c-1.025 33.201-28.185 59.726-61.54 59.726-0.46 0-0.918-0.005-1.376-0.015l0.068 0.001zM713.792 79.68h-565.952v587.392h565.888zM226.432 836.288c1.025 33.201 28.185 59.726 61.54 59.726 0.46 0 0.918-0.005 1.376-0.015l-0.068 0.001h608c0.389 0.009 0.848 0.014 1.308 0.014 33.355 0 60.515-26.525 61.538-59.632l0.002-0.094v-627.2c-1.025-33.201-28.185-59.726-61.54-59.726-0.46 0-0.918 0.005-1.376 0.015l0.068-0.001h-20.928v667.008h-649.92zM257.856 497.728c0.495 16.615 14.082 29.895 30.771 29.895 0.23 0 0.459-0.003 0.687-0.008l-0.034 0.001h282.944c0.194 0.004 0.423 0.007 0.653 0.007 16.689 0 30.276-13.28 30.77-29.849l0.001-0.046v-19.904c-0.495-16.615-14.082-29.895-30.771-29.895-0.23 0-0.459 0.003-0.687 0.008l0.034-0.001h-282.944c-0.194-0.004-0.423-0.007-0.653-0.007-16.689 0-30.276 13.28-30.77 29.849l-0.001 0.046zM257.856 303.616c0.495 16.615 14.082 29.895 30.771 29.895 0.23 0 0.459-0.003 0.687-0.008l-0.034 0.001h188.608c0.194 0.004 0.423 0.007 0.653 0.007 16.689 0 30.276-13.28 30.77-29.849l0.001-0.046v-19.904c-0.495-16.615-14.082-29.895-30.771-29.895-0.23 0-0.459 0.003-0.687 0.008l0.034-0.001h-188.608c-0.194-0.004-0.423-0.007-0.653-0.007-16.689 0-30.276 13.28-30.77 29.849l-0.001 0.046z" />
<glyph unicode="&#xe939;" glyph-name="chevron-right" d="M286.848 883.072c-25.6-25.6-25.6-70.4 0-96 0 0 0 0 0 0l332.8-332.8-345.6-345.6c-25.6-25.6-25.6-70.4 0-96s70.4-25.6 96 0c0 0 0 0 0 0l384 384c0 0 0 0 0 6.4 25.6 25.6 32 64 12.8 96 0 0-6.4 6.4-6.4 6.4l-384 384c-19.2 19.2-64 19.2-89.6-6.4 0 0 0 0 0 0z" />
<glyph unicode="&#xe93a;" glyph-name="chevron-up" d="M75.648 223.872c25.6-25.6 70.4-25.6 96 0 0 0 0 0 0 0l332.8 332.8 345.6-345.6c25.6-25.6 70.4-25.6 96 0s25.6 70.4 0 96c0 0 0 0 0 0l-384 384c0 0-6.4 6.4-6.4 6.4-25.6 25.6-64 32-96 12.8 0 0-6.4-6.4-6.4-6.4l-384-384c-19.2-32-19.2-70.4 6.4-96 0 0 0 0 0 0z" />
<glyph unicode="&#xe93b;" glyph-name="dots" d="M191.659 582.059c-59.759 0-108.203-48.444-108.203-108.203s48.444-108.203 108.203-108.203c59.759 0 108.203 48.444 108.203 108.203v0c-0.073 59.729-48.473 108.13-108.196 108.203h-0.007zM516.267 582.059c-59.759 0-108.203-48.444-108.203-108.203s48.444-108.203 108.203-108.203c59.759 0 108.203 48.444 108.203 108.203v0c-0.073 59.729-48.473 108.13-108.196 108.203h-0.007zM840.917 582.059c-59.759 0-108.203-48.444-108.203-108.203s48.444-108.203 108.203-108.203c59.759 0 108.203 48.444 108.203 108.203v0c-0.073 59.729-48.473 108.13-108.196 108.203h-0.007z" />
<glyph unicode="&#xe93c;" glyph-name="play-circle-fill" d="M512 960c-282.77 0-512-229.23-512-512s229.23-512 512-512c282.77 0 512 229.23 512 512v0c0 282.77-229.23 512-512 512v0zM676.685 440.115l-249.6-181.555c-1.482-1.070-3.335-1.712-5.338-1.712-5.054 0-9.154 4.085-9.177 9.134v362.933c0 0.010 0 0.022 0 0.033 0 5.047 4.092 9.139 9.139 9.139 2.021 0 3.888-0.656 5.402-1.766l-0.026 0.018 249.6-181.491c0.803-0.576 1.485-1.258 2.043-2.035l0.018-0.026c1.080-1.471 1.728-3.317 1.728-5.315 0-3.022-1.484-5.698-3.762-7.339l-0.027-0.018z" />
<glyph unicode="&#xe93d;" glyph-name="star" d="M949.658 589.466l-272.026 39.526-121.6 246.528c-5.744 11.374-17.337 19.038-30.72 19.038s-24.976-7.664-30.63-18.842l-0.090-0.196-121.6-246.528-272.026-39.526c-16.705-2.468-29.38-16.706-29.38-33.904 0-9.658 3.997-18.382 10.427-24.608l0.009-0.009 196.813-191.898-46.49-270.95c-0.313-1.74-0.492-3.742-0.492-5.786 0-18.917 15.336-34.253 34.253-34.253 5.835 0 11.33 1.459 16.138 4.032l-0.184-0.090 243.302 128 243.302-128c4.625-2.484 10.119-3.943 15.955-3.943 18.917 0 34.253 15.336 34.253 34.253 0 2.044-0.179 4.046-0.522 5.992l0.030-0.206-46.49 270.95 196.813 191.898c6.37 6.241 10.318 14.933 10.318 24.546 0 17.177-12.605 31.409-29.070 33.951l-0.192 0.024zM688.998 366.080l38.656-225.28-202.394 106.291-202.394-106.394 38.656 225.28-163.84 159.642 226.253 32.87 101.12 204.8 101.12-204.8 226.253-32.87z" />
<glyph unicode="&#xe93e;" glyph-name="star-fill" d="M931.072 573.184l-268.8 39.040-120.064 243.413c-5.665 11.254-17.125 18.841-30.357 18.841s-24.692-7.586-30.269-18.646l-0.089-0.194-119.765-243.413-268.8-39.040c-16.493-2.446-29.004-16.506-29.004-33.488 0-9.523 3.934-18.126 10.265-24.275l0.008-0.008 194.347-189.483-45.909-267.563c-0.317-1.739-0.499-3.741-0.499-5.785 0-18.663 15.129-33.792 33.792-33.792 5.77 0 11.202 1.446 15.954 3.996l-0.181-0.089 240.256 126.293 240.256-126.293c4.558-2.439 9.97-3.872 15.717-3.872 18.686 0 33.835 15.148 33.835 33.835 0 2.016-0.176 3.991-0.514 5.91l0.030-0.203-45.909 267.563 194.347 189.483c6.282 6.161 10.176 14.737 10.176 24.223 0 16.964-12.453 31.020-28.717 33.523l-0.189 0.024z" />
<glyph unicode="&#xe93f;" glyph-name="edit" d="M400.043 105.472l374.912 484.821c14.471 17.528 23.248 40.222 23.248 64.967 0 7.853-0.884 15.5-2.558 22.846l0.132-0.687c-7.371 30.737-24.81 56.588-48.565 74.513l-0.331 0.239-62.933 50.005c-19.712 18.655-46.39 30.126-75.748 30.126-34.631 0-65.533-15.96-85.754-40.927l-0.162-0.207-42.069-54.613c-2.096-2.695-3.36-6.126-3.36-9.853 0-5.079 2.348-9.609 6.017-12.565l0.031-0.024 108.672-87.125c7.467-6.932 12.578-16.311 14.053-26.855l0.027-0.238c0.158-1.342 0.249-2.896 0.249-4.471 0-20.445-15.218-37.336-34.944-39.965l-0.206-0.022c-1.452-0.207-3.128-0.325-4.833-0.325-8.664 0-16.616 3.053-22.837 8.141l-111.765 88.952c-2.171 1.589-4.894 2.543-7.839 2.543-4.133 0-7.827-1.877-10.276-4.825l-0.018-0.022-265.771-343.979c-12.111-15.314-19.428-34.904-19.428-56.203 0-7.305 0.861-14.409 2.486-21.216l-0.125 0.619 34.133-147.243c1.775-7.677 8.554-13.312 16.649-13.312 0.027 0 0.054 0 0.081 0h-0.004l149.333 1.835c28.276 0.522 53.284 14.064 69.35 34.864l0.154 0.208zM609.109 151.339h243.627c23.535-0.759 42.326-20.020 42.326-43.669s-18.79-42.911-42.256-43.668l-0.069-0.002h-243.627c-23.535 0.759-42.326 20.020-42.326 43.669s18.79 42.911 42.256 43.668l0.069 0.002z" />
<glyph unicode="&#xe940;" glyph-name="bin" d="M294.4 624.192l36.352-515.52h356.16l36.352 515.52h83.968l-36.672-521.408c-3.17-43.7-39.401-77.952-83.633-77.952-0.005 0-0.010 0-0.016 0h-356.159c-0.004 0-0.010 0-0.015 0-44.232 0-80.463 34.252-83.617 77.679l-0.016 0.273-36.736 521.408zM476.928 598.208v-391.296h-83.84v391.296zM630.528 598.208v-391.296h-83.84v391.296zM85.504 763.904h838.4v-83.84h-838.4zM679.68 903.68v-83.84h-335.424v83.84z" />
<glyph unicode="&#xe941;" glyph-name="doc" d="M800.299-63.957h-576.811c-79.67 0-144.256 64.586-144.256 144.256v0 721.237c0.024 79.652 64.601 144.213 144.256 144.213h468.523c0.124 0.002 0.27 0.002 0.417 0.002 9.957 0 18.968-4.046 25.481-10.583l216.278-216.278c6.537-6.52 10.581-15.536 10.581-25.498 0-0.036 0-0.072 0-0.108v0.006-612.992c0 0 0 0 0 0 0-79.67-64.586-144.256-144.256-144.256-0.075 0-0.15 0-0.225 0h0.012zM295.424 152.405h432.768c19.912 0 36.053 16.142 36.053 36.053s-16.142 36.053-36.053 36.053h-432.597c-19.912 0-36.053-16.142-36.053-36.053s16.142-36.053 36.053-36.053v0zM259.371 404.864c0-19.912 16.142-36.053 36.053-36.053v0h432.768c19.912 0 36.053 16.142 36.053 36.053s-16.142 36.053-36.053 36.053h-432.597c-19.912 0-36.053-16.142-36.053-36.053v0zM836.395 693.376h-144.256v144.256c0 19.912-16.142 36.053-36.053 36.053s-36.053-16.142-36.053-36.053v0-180.309c0-19.912 16.142-36.053 36.053-36.053h180.309c19.912 0 36.053 16.142 36.053 36.053s-16.142 36.053-36.053 36.053v0z" />
<glyph unicode="&#xe942;" glyph-name="lock-fill" d="M391.765 476.8h249.429v93.525c0 68.878-55.837 124.715-124.715 124.715s-124.715-55.837-124.715-124.715v0zM797.099 429.867v-280.619c0.001-0.089 0.001-0.194 0.001-0.3 0-25.756-20.879-46.635-46.635-46.635-0.105 0-0.211 0-0.316 0.001h-467.525c-0.089-0.001-0.194-0.001-0.3-0.001-25.756 0-46.635 20.879-46.635 46.635 0 0.105 0 0.211 0.001 0.316v-0.016 280.747c-0.001 0.089-0.001 0.194-0.001 0.3 0 25.756 20.879 46.635 46.635 46.635 0.105 0 0.211 0 0.316-0.001h15.557v93.397c0 120.531 97.709 218.24 218.24 218.24s218.24-97.709 218.24-218.24v0-93.525h15.573c0.089 0.001 0.194 0.001 0.3 0.001 25.756 0 46.635-20.879 46.635-46.635 0-0.105 0-0.211-0.001-0.316v0.016z" />
<glyph unicode="&#xe943;" glyph-name="delete" d="M865.536 725.035h-228.267v72.917c-0.121 40.293-32.752 72.924-73.034 73.045h-109.58c-40.293-0.121-72.924-32.752-73.045-73.034v-73.057h-228.608c-14.976-0.371-27.021-12.416-27.391-27.357l-0.001-0.035v-54.784c0.371-14.976 12.416-27.021 27.357-27.391l0.035-0.001h712.533c14.976 0.371 27.021 12.416 27.391 27.357l0.001 0.035v54.912c-0.371 14.976-12.416 27.021-27.357 27.391l-0.035 0.001zM454.613 779.819c-0.029 0.371-0.045 0.803-0.045 1.24 0 9.426 7.641 17.067 17.067 17.067 0.436 0 0.869-0.016 1.297-0.049l-0.057 0.003h73.045c0.371 0.029 0.803 0.045 1.24 0.045 9.426 0 17.067-7.641 17.067-17.067 0-0.436-0.016-0.869-0.049-1.297l0.003 0.057v-54.784h-109.568zM792.491 542.421h-566.272c-14.976-0.371-27.021-12.416-27.391-27.357l-0.001-0.035v-429.184c-0.003-0.268-0.004-0.584-0.004-0.9 0-49.932 40.478-90.411 90.411-90.411 0.317 0 0.633 0.002 0.949 0.005h438.267c0.268-0.003 0.584-0.004 0.9-0.004 49.932 0 90.411 40.478 90.411 90.411 0 0.317-0.002 0.633-0.005 0.949v-0.048 429.184c-0.371 14.976-12.416 27.021-27.357 27.391l-0.035 0.001zM454.613 140.629c0.029-0.371 0.045-0.803 0.045-1.24 0-9.426-7.641-17.067-17.067-17.067-0.436 0-0.869 0.016-1.297 0.049l0.057-0.003h-36.523c-0.371-0.029-0.803-0.045-1.24-0.045-9.426 0-17.067 7.641-17.067 17.067 0 0.436 0.016 0.869 0.049 1.297l-0.003-0.057v255.701c-0.029 0.371-0.045 0.803-0.045 1.24 0 9.426 7.641 17.067 17.067 17.067 0.436 0 0.869-0.016 1.297-0.049l-0.057 0.003h36.523c0.371 0.029 0.803 0.045 1.24 0.045 9.426 0 17.067-7.641 17.067-17.067 0-0.436-0.016-0.869-0.049-1.297l0.003 0.057zM637.227 140.629c0.029-0.371 0.045-0.803 0.045-1.24 0-9.426-7.641-17.067-17.067-17.067-0.436 0-0.869 0.016-1.297 0.049l0.057-0.003h-36.523c-0.371-0.029-0.803-0.045-1.24-0.045-9.426 0-17.067 7.641-17.067 17.067 0 0.436 0.016 0.869 0.049 1.297l-0.003-0.057v255.701c-0.029 0.371-0.045 0.803-0.045 1.24 0 9.426 7.641 17.067 17.067 17.067 0.436 0 0.869-0.016 1.297-0.049l-0.057 0.003h36.523c0.371 0.029 0.803 0.045 1.24 0.045 9.426 0 17.067-7.641 17.067-17.067 0-0.436-0.016-0.869-0.049-1.297l0.003 0.057z" />
<glyph unicode="&#xe944;" glyph-name="account-fill" d="M512 195.872c-0.068 0-0.149 0-0.23 0-109.96 0-206.462-57.623-260.956-144.32l-0.751-1.28c69.535-46.519 154.426-75.315 245.852-78.205l0.74-0.019 15.36-0.224c0.272-0.001 0.593-0.001 0.915-0.001 97.198 0 187.558 29.273 262.746 79.485l-1.725-1.084c-55.24 88.004-151.756 145.648-261.736 145.648-0.076 0-0.152 0-0.227 0h0.012zM512 924.272c-263.010-0.025-476.212-213.242-476.212-476.256 0-135.796 56.834-258.318 148.013-345.076l0.199-0.188c71.155 107.352 191.452 177.172 328.056 177.172s256.901-69.82 327.151-175.721l0.905-1.451c91.378 86.946 148.212 209.468 148.212 345.264 0 263.013-213.202 476.231-476.21 476.256h-0.003zM512 784.192c123.782 0 224.128-100.346 224.128-224.128s-100.346-224.128-224.128-224.128c-123.782 0-224.128 100.346-224.128 224.128v0c0 123.782 100.346 224.128 224.128 224.128v0zM512 700.144c-77.364 0-140.080-62.716-140.080-140.080s62.716-140.080 140.080-140.080c77.364 0 140.080 62.716 140.080 140.080v0c-0.009 77.357-62.722 140.064-140.080 140.064v0z" />
<glyph unicode="&#xe945;" glyph-name="tab-fill" d="M823.456 927.168h-638.896c-88.215 0-159.728-71.513-159.728-159.728v0-638.896c0-88.215 71.513-159.728 159.728-159.728v0h638.896c88.215 0 159.728 71.513 159.728 159.728v0 638.896c0 88.215-71.513 159.728-159.728 159.728v0zM504 767.44c29.408 0 53.248-23.84 53.248-53.248s-23.84-53.248-53.248-53.248c-29.408 0-53.248 23.84-53.248 53.248v0c0 29.408 23.84 53.248 53.248 53.248v0zM291.040 767.44c29.408 0 53.248-23.84 53.248-53.248s-23.84-53.248-53.248-53.248c-29.408 0-53.248 23.84-53.248 53.248v0c0 29.408 23.84 53.248 53.248 53.248v0zM876.64 128.544c0-29.408-23.84-53.248-53.248-53.248v0h-638.832c-29.408 0-53.248 23.84-53.248 53.248v0 372.688h745.392z" />
<glyph unicode="&#xe946;" glyph-name="contact" d="M113.778 789.333h591.019c40.563-0.16 73.414-32.951 73.671-73.476v-591.669c-0.032-40.6-32.953-73.501-73.557-73.501-0.040 0-0.080 0-0.12 0h-591.013zM261.689 715.378h-73.956v-590.791h73.956zM335.644 124.53h369.266v590.905h-369.266zM409.6 272.441c0 61.188 49.603 110.791 110.791 110.791s110.791-49.603 110.791-110.791v0zM520.363 420.352c-40.845 0-73.956 33.111-73.956 73.956s33.111 73.956 73.956 73.956c40.845 0 73.956-33.111 73.956-73.956v0c0.001-0.102 0.001-0.222 0.001-0.342 0-40.845-33.111-73.956-73.956-73.956-0.14 0-0.28 0-0.421 0.001h0.022zM815.787 641.934h73.956v-147.911h-73.956zM815.787 420.352h73.956v-147.911h-73.956z" />
<glyph unicode="&#xe947;" glyph-name="tv-fill" d="M742.4 217.6c-12.8 25.6-38.4 42.667-68.267 42.667h-328.533c-29.867 0-55.467-17.067-68.267-42.667l-25.6-55.467c-8.533-12.8-4.267-25.6 0-38.4 8.533-12.8 17.067-17.067 29.867-17.067 0 0 0 0 4.267 0 12.8 0 25.6 8.533 29.867 21.333l25.6 55.467h328.533l25.6-55.467c8.533-12.8 21.333-21.333 34.133-21.333 4.267 0 12.8 0 17.067 4.267 17.067 8.533 25.6 29.867 17.067 51.2l-21.333 55.467zM849.067 785.067h-674.133c0 0 0 0 0 0-64 0-110.933-51.2-110.933-110.933v-375.467c0 0 0 0 0 0 0-64 51.2-110.933 110.933-110.933 21.333 0 38.4 17.067 38.4 38.4s-17.067 38.4-38.4 38.4c-21.333 0-38.4 17.067-38.4 38.4v371.2c0 21.333 17.067 38.4 38.4 38.4h678.4c0 0 0 0 0 0 21.333 0 38.4-17.067 38.4-38.4v-375.467c0-21.333-17.067-38.4-38.4-38.4 0 0 0 0 0 0-21.333 0-38.4-17.067-38.4-38.4s17.067-38.4 38.4-38.4c64 0 110.933 51.2 110.933 110.933v379.733c0 0 0 0 0 0 0 64-51.2 110.933-115.2 110.933zM827.733 358.4v256c0 25.6-17.067 42.667-42.667 42.667h-546.133c-25.6 0-42.667-17.067-42.667-42.667v-256c0-25.6 17.067-42.667 42.667-42.667h546.133c21.333 0 42.667 17.067 42.667 42.667z" />
<glyph unicode="&#xe948;" glyph-name="tv" d="M763.733 192c-17.067 34.133-51.2 55.467-85.333 55.467h-332.8c-38.4 0-68.267-21.333-85.333-55.467l-25.6-55.467c-8.533-12.8-8.533-29.867-4.267-46.933s17.067-25.6 29.867-34.133c8.533-4.267 17.067-4.267 25.6-4.267 4.267 0 12.8 0 17.067 4.267 17.067 4.267 25.6 17.067 34.133 29.867l21.333 42.667h302.933l21.333-42.667c8.533-21.333 29.867-34.133 51.2-34.133 8.533 0 17.067 4.267 25.6 4.267 29.867 12.8 42.667 51.2 25.6 81.067l-21.333 55.467zM849.067 759.467h-674.133c-68.267 0-123.733-55.467-123.733-123.733v-375.467c0-68.267 55.467-123.733 123.733-123.733 25.6 0 46.933 21.333 46.933 46.933s-21.333 51.2-46.933 51.2c-12.8 0-25.6 12.8-25.6 25.6v375.467c0 12.8 12.8 25.6 25.6 25.6h678.4c12.8 0 25.6-12.8 25.6-25.6v-375.467c0-12.8-12.8-25.6-25.6-25.6-25.6 0-46.933-21.333-46.933-46.933s21.333-46.933 46.933-46.933c68.267 0 123.733 55.467 123.733 123.733v371.2c-4.267 68.267-59.733 123.733-128 123.733z" />
</font>
</defs>
</svg>
